<?xml version="1.0" standalone="no"?> <!DOCTYPE svg PUBLIC "-//W3C//DTD SVG 1.0//EN" "http://www.w3.org/TR/2001/REC-SVG-20010904/DTD/svg10.dtd" > <svg xmlns="http://www.w3.org/2000/svg" width="100%" height="100%">
<defs >
<font id="FuturaBT-Book" horiz-adv-x="891" ><font-face
    font-family="Futura Bk BT"
    units-per-em="2048"
    panose-1="2 11 5 2 2 2 4 2 3 3"
    ascent="1973"
    descent="-483"
    alphabetic="0" />
<missing-glyph horiz-adv-x="1228" d="M102 -362V1444H1126V-362H102ZM217 -248H1012V1329H217V-248Z" />
<glyph unicode=" " glyph-name="space" horiz-adv-x="602" />
<glyph unicode="!" glyph-name="exclam" horiz-adv-x="651" d="M209 31T209 80T244 164T328 199T411 164T446 80T412 -4T328 -39T244 -4ZM248 332V1497H408V332H248Z" />
<glyph unicode="&quot;" glyph-name="quotedbl" horiz-adv-x="589" d="M496 1434V881H377V1434H496ZM211 1434V881H94V1434H211Z" />
<glyph unicode="#" glyph-name="numbersign" horiz-adv-x="1574" d="M973 862H709L614 590H877L973 862ZM922 1456L756 985H1016L1184 1456H1327L1163 985H1470L1427 862H1116L1022 590H1352L1309 467H977L811 -2H666L834 467H569L401 -2H258L424 467H104L147
590H467L563 862H221L264 985H608L776 1456H922Z" />
<glyph unicode="$" glyph-name="dollar" horiz-adv-x="1206" d="M614 877Q825 803 923 691T1022 403Q1022 217 913 98Q807 -19 614 -37V-186H535V-39Q365 -29 262 57Q158 147 127 305L274 395Q303 264 367 197Q435 127 535 115V719Q351 789 260 891Q172 991 172
1135Q172 1291 266 1386Q360 1484 535 1503V1602H614V1503Q739 1493 823 1440T961 1282L811 1188Q778 1266 731 1305Q680 1346 614 1352V877ZM535 1354Q447 1336 397 1282Q346 1229 346 1153Q346 1067 389 1012T535 913V1354ZM614 115Q731 135 793 207Q850 273
850 393Q850 495 795 563Q738 633 614 684V115Z" />
<glyph unicode="%" glyph-name="percent" horiz-adv-x="1515" d="M1466 340Q1466 160 1386 61Q1304 -39 1167 -39Q1026 -39 946 61Q866 163 866 339T946 618Q1026 718 1167 719Q1306 719 1386 618Q1466 516 1466 340ZM1096 63T1167 63T1280 135T1321 340Q1321
477 1282 546T1167 616Q1095 616 1055 545T1014 340T1055 135ZM287 823T358 823T471 895T512 1100Q512 1237 473 1307Q432 1379 358 1378Q286 1378 246 1305Q205 1229 205 1100Q205 967 246 895ZM659 1100Q659 920 580 822T359 723T137 821T57 1100Q57 1278 137
1378T358 1479T579 1379T659 1100ZM272 -39L1114 1479H1237L397 -39H272Z" />
<glyph unicode="&amp;" glyph-name="ampersand" horiz-adv-x="1368" d="M868 289L514 717L471 688Q351 605 305 541Q260 478 260 393Q260 276 336 201Q414 123 528 123Q606 123 692 164Q774 203 868 289ZM575 897L639 934Q709 979 741 1028Q776 1081 776 1145Q776
1219 729 1266Q684 1311 604 1311Q526 1311 479 1264T432 1141Q432 1108 446 1069Q458 1038 485 1004L575 897ZM1106 0L965 170Q865 70 758 23Q647 -26 520 -27Q327 -27 207 88T86 387Q86 516 170 629Q253 740 422 838L362 905Q311 966 291 1022Q268 1083 268 1149Q268
1282 362 1370Q454 1456 604 1456Q756 1456 846 1372T936 1149Q936 1038 872 954Q802 862 670 782L989 397Q1014 424 1071 498Q1108 545 1163 625L1270 508Q1227 445 1180 387Q1119 313 1083 281L1317 0H1106Z" />
<glyph unicode="&apos;" glyph-name="quotesingle" horiz-adv-x="303" d="M211 1434V881H94V1434H211Z" />
<glyph unicode="(" glyph-name="parenleft" horiz-adv-x="589" d="M510 -393L403 -449Q280 -216 225 20Q166 274 166 541Q166 828 225 1077Q282 1321 403 1534L510 1485Q402 1273 350 1042Q299 817 299 541Q299 258 350 33Q401 -196 510 -393Z" />
<glyph unicode=")" glyph-name="parenright" horiz-adv-x="589" d="M80 -393Q189 -196 240 33Q291 258 291 541Q291 817 240 1042Q188 1272 80 1485L186 1534Q307 1321 365 1077Q424 827 424 541Q424 275 365 20Q308 -228 186 -449L80 -393Z" />
<glyph unicode="*" glyph-name="asterisk" horiz-adv-x="847" d="M152 899L102 987L326 1116L102 1245L154 1333L379 1202L377 1464H479L477 1208L696 1333L745 1243L526 1116L745 991L696 901L479 1026V776H377V1030L152 899Z" />
<glyph unicode="+" glyph-name="plus" horiz-adv-x="1705" d="M913 1221V670H1452V553H913V0H795V553H254V670H795V1221H913Z" />
<glyph unicode="," glyph-name="comma" horiz-adv-x="602" d="M121 -291L311 254L481 195L236 -336L121 -291Z" />
<glyph unicode="-" glyph-name="hyphen" horiz-adv-x="749" d="M141 535H608V377H141V535Z" />
<glyph unicode="." glyph-name="period" horiz-adv-x="602" d="M182 98Q182 147 217 182T301 217Q348 217 387 182Q422 149 422 98Q422 51 387 17T301 -18Q252 -18 217 16T182 98Z" />
<glyph unicode="/" glyph-name="slash" horiz-adv-x="851" d="M717 1497H854L135 -190H0L717 1497Z" />
<glyph unicode="0" glyph-name="zero" horiz-adv-x="1206" d="M606 -39Q368 -39 233 164Q96 369 96 721T231 1276T602 1479Q842 1479 977 1280Q1112 1080 1112 721Q1112 365 977 162Q844 -39 606 -39ZM604 104Q766 104 848 260Q932 418 932 719Q932 1022 848 1179T604
1337Q448 1337 362 1176Q276 1012 276 723Q276 430 362 266Q448 104 604 104Z" />
<glyph unicode="1" glyph-name="one" horiz-adv-x="1206" d="M559 0V1298H260L358 1450H729V0H559Z" />
<glyph unicode="2" glyph-name="two" horiz-adv-x="1206" d="M997 166V0H115L424 367L512 471Q870 897 870 1063Q870 1177 791 1247Q709 1319 582 1319Q443 1319 369 1241T295 1018V1001H131Q131 1003 130 1010T129 1022V1040Q129 1247 250 1364Q367 1479 588
1479Q803 1479 922 1372Q1043 1263 1042 1073Q1042 934 961 788Q878 641 672 414L442 166H997Z" />
<glyph unicode="3" glyph-name="three" horiz-adv-x="1206" d="M113 371H291V354Q291 241 365 176Q441 110 563 111Q706 111 786 184T866 393Q866 534 786 608Q708 680 547 680H516Q512 680 506 679T496 678V821Q498 821 506 820T520 819H543Q693 819 770 884T848
1081Q848 1196 778 1264Q707 1332 588 1331Q463 1331 389 1268Q317 1207 311 1087H139Q147 1275 266 1378Q381 1478 592 1479Q795 1479 911 1374Q1030 1268 1030 1090Q1030 963 961 871T770 748Q901 728 975 631Q1049 537 1049 387Q1049 188 918 74Q791 -39 557
-39Q352 -39 233 66Q112 170 113 344V371Z" />
<glyph unicode="4" glyph-name="four" horiz-adv-x="1206" d="M731 0V315H45L829 1479H903V457H1075V315H903V0H731ZM731 457V1100L303 457H731Z" />
<glyph unicode="5" glyph-name="five" horiz-adv-x="1206" d="M213 731L180 737L354 1450H997V1300H473L381 924Q438 953 487 963Q555 977 608 977Q823 977 948 848Q1073 721 1073 500Q1073 252 928 107T535 -39Q388 -39 277 14T94 176L217 319Q266 217 348 166Q432
113 539 113Q699 113 793 213Q889 315 889 483Q889 643 789 739T524 836Q436 836 358 809Q276 780 213 731Z" />
<glyph unicode="6" glyph-name="six" horiz-adv-x="1206" d="M299 426Q299 276 381 193Q464 107 602 106Q739 106 821 194T903 428Q903 578 819 666Q736 752 592 752Q461 752 381 662Q299 569 299 426ZM416 827Q467 862 524 881Q573 897 641 897Q838 897 960 772T1083
444Q1083 225 944 92Q807 -39 567 -39Q364 -39 242 92Q119 225 119 440Q119 649 393 1036L403 1051L737 1522L889 1442L416 827Z" />
<glyph unicode="7" glyph-name="seven" horiz-adv-x="1206" d="M231 18L856 1298H178V1450H1106L375 -55L231 18Z" />
<glyph unicode="8" glyph-name="eight" horiz-adv-x="1206" d="M606 1346Q487 1346 416 1280Q346 1217 346 1102Q346 991 414 928Q480 865 602 864Q727 864 795 926Q865 989 865 1101T795 1280T606 1346ZM604 102Q747 102 829 180T911 397Q911 538 829 618Q745
698 604 698T379 618Q297 538 297 397Q297 258 379 180T604 102ZM414 774Q285 815 227 897Q166 983 166 1112Q166 1272 289 1376Q410 1478 606 1479Q806 1479 926 1374Q1045 1270 1044 1098Q1044 983 979 895Q913 809 797 774Q940 735 1020 633Q1098 535 1098 389Q1098
190 967 76T606 -39Q379 -39 246 75T113 385Q113 532 193 633Q273 735 414 774Z" />
<glyph unicode="9" glyph-name="nine" horiz-adv-x="1206" d="M899 1014Q899 1166 817 1249Q734 1335 596 1335Q459 1335 377 1247T295 1014Q295 860 377 776Q460 690 604 690Q733 690 817 780Q899 869 899 1014ZM782 614Q721 577 674 561Q625 545 557 545Q360
545 238 670T115 997Q115 1220 254 1350Q392 1479 629 1479Q832 1479 954 1346T1077 999Q1077 788 803 401L795 391L461 -80L309 -2L782 614Z" />
<glyph unicode=":" glyph-name="colon" horiz-adv-x="651" d="M209 723T209 772T244 856T328 891T411 856T446 772T412 688T328 653T244 688ZM209 100Q209 147 244 182T328 217T411 182T446 100Q446 51 412 17T328 -18T244 16T209 100Z" />
<glyph unicode=";" glyph-name="semicolon" horiz-adv-x="651" d="M285 723T285 772T319 856T403 891T487 856T522 772T488 688T404 653T320 688ZM131 -291L322 254L492 195L244 -336L131 -291Z" />
<glyph unicode="&lt;" glyph-name="less" horiz-adv-x="1705" d="M1442 1018L442 610L1442 205V76L264 559V662L1442 1145V1018Z" />
<glyph unicode="=" glyph-name="equal" horiz-adv-x="1705" d="M1452 477V360H254V477H1452ZM1452 860V743H254V860H1452Z" />
<glyph unicode="&gt;" glyph-name="greater" horiz-adv-x="1705" d="M1442 662V559L264 76V205L1264 610L264 1018V1145L1442 662Z" />
<glyph unicode="?" glyph-name="question" horiz-adv-x="1064" d="M680 666H834V633Q834 479 754 397T526 315Q391 315 309 393Q231 469 231 608Q231 698 281 772Q326 840 475 944Q491 954 520 975Q708 1100 709 1196Q709 1266 662 1307T532 1348Q444 1348 395
1293T346 1135H184V1161Q184 1313 279 1405T530 1497Q692 1497 788 1411Q882 1325 883 1178Q883 1086 827 1012Q770 936 618 836Q612 832 597 822T573 807Q395 690 395 588Q395 533 432 496Q467 461 528 461Q604 461 641 510Q680 561 680 657V666ZM391 31T391 80T426
164T510 199T594 164T629 80T594 -4T510 -39T426 -4Z" />
<glyph unicode="@" glyph-name="at" horiz-adv-x="2048" d="M1292 844L1350 965H1460L1319 397Q1315 381 1311 353T1307 317Q1307 272 1335 250T1417 227Q1462 227 1518 252Q1571 277 1620 315Q1710 393 1759 512Q1810 637 1810 766Q1810 1032 1614 1194Q1419
1356 1096 1356Q926 1356 784 1305Q637 1252 524 1151Q385 1030 314 869T242 514Q242 344 303 211Q366 76 489 -20Q595 -104 729 -145Q867 -188 1024 -188Q1196 -188 1358 -139Q1524 -88 1655 0L1700 -66Q1544 -179 1386 -231Q1220 -286 1040 -287Q852 -287 692
-240T416 -102Q264 13 189 170T113 522Q113 678 164 831Q211 970 313 1100Q460 1274 662 1366Q865 1458 1116 1458Q1280 1458 1427 1415Q1568 1374 1675 1290Q1802 1194 1870 1061Q1938 929 1937 778Q1937 612 1874 469Q1815 334 1692 233Q1622 176 1544 150Q1462
121 1380 121Q1278 121 1231 160Q1182 200 1182 276L1183 280Q1184 283 1184 287V299Q1129 209 1057 166Q981 121 887 121Q733 121 653 207T573 453Q573 684 711 842Q849 1002 1042 1001Q1132 1001 1195 961T1292 844ZM1202 473L1262 715Q1244 807 1190 854Q1133
905 1055 905Q910 905 812 774T713 446Q713 333 764 276Q817 217 909 217Q1009 217 1091 286T1202 473Z" />
<glyph unicode="A" glyph-name="A" horiz-adv-x="1280" d="M639 1137L406 598H872L639 1137ZM639 1522L1305 0H1116L926 449H354L164 0H-25L639 1522Z" />
<glyph unicode="B" glyph-name="B" horiz-adv-x="1150" d="M176 0V1464H481Q637 1464 719 1448Q791 1434 850 1391Q920 1340 958 1257Q997 1177 997 1079Q997 962 942 885Q885 807 780 776Q907 756 985 659Q1061 565 1061 416Q1061 334 1028 248Q997 168 940 111Q879
50 787 25T481 0H176ZM346 686V152H481Q620 152 682 164Q750 178 780 201Q827 232 852 291Q877 348 877 416Q877 496 846 555Q815 612 756 647Q722 669 676 678Q635 686 532 686H481H346ZM346 1313V823H481Q669 823 743 877Q819 932 819 1059Q819 1202 748 1257T481
1313H346Z" />
<glyph unicode="C" glyph-name="C" horiz-adv-x="1484" d="M1364 1114Q1260 1227 1141 1282Q1021 1337 877 1337Q764 1337 651 1290Q540 1243 459 1159Q379 1075 334 965Q291 856 291 727Q291 625 315 539Q340 457 391 381Q479 256 608 189T885 121Q1028 121 1145
178Q1264 235 1364 352V121Q1260 43 1131 2T870 -39Q757 -39 643 -4Q541 27 438 96Q278 207 193 369Q109 529 109 725Q109 889 166 1032Q221 1170 338 1284Q451 1395 586 1446Q723 1499 883 1499Q1012 1499 1128 1460Q1249 1419 1364 1341V1114Z" />
<glyph unicode="D" glyph-name="D" horiz-adv-x="1484" d="M352 164H463Q733 164 838 188Q947 215 1010 268Q1102 344 1147 461Q1194 584 1194 733Q1194 885 1147 1004Q1102 1121 1010 1196Q944 1253 834 1278Q725 1303 463 1303H352V164ZM176 0V1464H457Q760
1464 897 1432Q1024 1401 1120 1327Q1247 1229 1311 1079Q1377 925 1376 731Q1376 538 1311 385Q1248 235 1120 137Q1022 61 901 31Q778 0 520 0H457H176Z" />
<glyph unicode="E" glyph-name="E" horiz-adv-x="1064" d="M176 0V1464H948V1305H350V885H948V723H350V162H948V0H176Z" />
<glyph unicode="F" glyph-name="F" horiz-adv-x="1036" d="M176 0V1464H948V1305H350V885H948V723H350V0H176Z" />
<glyph unicode="G" glyph-name="G" horiz-adv-x="1665" d="M981 756H1585V707Q1585 361 1389 162Q1192 -39 854 -39Q754 -39 658 -17T485 47Q305 145 207 319Q109 495 109 717Q109 897 168 1046T344 1307Q440 1401 573 1450Q700 1497 864 1497Q1079 1497 1231
1421Q1385 1343 1487 1190L1341 1073Q1261 1204 1145 1271T870 1339Q616 1339 457 1167T297 717Q297 455 459 287T870 119Q1087 119 1237 252Q1382 383 1399 600H981V756Z" />
<glyph unicode="H" glyph-name="H" horiz-adv-x="1478" d="M176 0V1464H350V901H1128V1464H1305V0H1128V735H350V0H176Z" />
<glyph unicode="I" glyph-name="I" horiz-adv-x="528" d="M178 0V1464H352V0H178Z" />
<glyph unicode="J" glyph-name="J" horiz-adv-x="792" d="M455 1464H631V322Q631 138 549 50T299 -39Q207 -39 137 -4Q65 33 0 106L115 221Q172 164 215 141Q262 116 311 117Q387 117 422 176Q455 233 455 408V1464Z" />
<glyph unicode="K" glyph-name="K" horiz-adv-x="1208" d="M176 0V1464H348V813L963 1464H1171L543 805L1233 0H1008L348 788V0H176Z" />
<glyph unicode="L" glyph-name="L" horiz-adv-x="933" d="M176 0V1464H350V166H903V0H176Z" />
<glyph unicode="M" glyph-name="M" horiz-adv-x="1714" d="M858 -57L403 995L219 0H49L346 1522L858 311L1370 1522L1667 0H1497L1311 995L858 -57Z" />
<glyph unicode="N" glyph-name="N" horiz-adv-x="1585" d="M176 0V1522L1247 352V1464H1413V-57L342 1100V0H176Z" />
<glyph unicode="O" glyph-name="O" horiz-adv-x="1781" d="M766 125T891 125T1120 170Q1229 217 1315 303Q1399 387 1446 498Q1491 602 1491 729Q1491 854 1446 963Q1399 1076 1315 1159T1120 1290Q1016 1335 891 1335Q764 1335 659 1290Q546 1241 467 1159Q383
1075 336 963Q291 854 291 729Q291 612 336 500Q377 396 467 303Q553 217 662 170Q766 125 891 125ZM1673 891T1673 729T1616 432Q1559 295 1446 186Q1335 80 1190 20Q1043 -39 891 -39T592 20Q449 77 338 186T168 434Q109 575 109 729Q109 885 168 1026Q227 1165
338 1273T592 1440Q733 1497 891 1497Q1051 1497 1192 1440Q1335 1383 1445 1274T1616 1026Q1673 891 1673 729Z" />
<glyph unicode="P" glyph-name="P" horiz-adv-x="1038" d="M346 657V0H176V1464H483Q653 1464 721 1448Q799 1430 852 1391Q918 1346 961 1253Q1002 1165 1002 1061T961 868Q918 776 852 731Q799 692 721 674Q653 658 483 657H434H346ZM346 815H434Q657 815 735
868T813 1051Q813 1188 733 1247Q655 1304 434 1305H346V815Z" />
<glyph unicode="Q" glyph-name="Q" horiz-adv-x="1781" d="M1075 522L1292 289Q1386 363 1436 475Q1487 594 1487 723Q1487 815 1466 895Q1444 978 1405 1042Q1323 1179 1188 1253Q1049 1329 891 1329Q770 1329 662 1284Q549 1237 467 1155T338 961Q293 852 293
731Q293 579 356 453Q419 324 543 238Q609 189 698 160Q780 133 877 133Q953 133 1028 150Q1098 164 1159 199L860 522H1075ZM1692 -141H1477L1282 68Q1198 17 1092 -8Q988 -33 866 -33Q741 -33 629 4T422 111Q268 226 188 383Q108 543 109 731Q109 881 168 1024Q223
1159 338 1274Q447 1380 592 1440Q731 1497 891 1497Q1049 1497 1184 1446Q1325 1393 1432 1294Q1553 1183 1612 1042Q1675 892 1675 729Q1675 553 1608 408Q1538 258 1413 160L1692 -141Z" />
<glyph unicode="R" glyph-name="R" horiz-adv-x="1095" d="M176 0V1464H520Q663 1464 735 1448Q801 1434 856 1391Q922 1338 956 1255Q993 1169 993 1065Q993 883 893 791Q792 699 598 698H567L1126 0H905L371 698H346V0H176ZM346 1317V827H479Q686 827 752 879Q822
932 821 1063Q821 1204 750 1260Q676 1317 479 1317H346Z" />
<glyph unicode="S" glyph-name="S" horiz-adv-x="1052" d="M709 813Q850 754 924 651Q998 550 997 412Q997 209 868 86T528 -37Q352 -37 238 51Q119 141 80 303L238 381Q269 250 344 181T528 111Q661 111 739 186Q821 264 821 383Q821 477 764 553Q709 627 594
676L416 752Q271 811 199 909Q127 1005 127 1139Q127 1296 244 1397Q363 1499 539 1499Q672 1499 768 1444Q860 1391 918 1278L774 1186Q727 1268 664 1313Q605 1354 526 1354Q424 1354 365 1294Q304 1233 303 1141Q303 1061 350 1006Q399 949 500 905L709 813Z"
/>
<glyph unicode="T" glyph-name="T" horiz-adv-x="1036" d="M432 0V1298H18V1464H1020V1298H608V0H432Z" />
<glyph unicode="U" glyph-name="U" horiz-adv-x="1474" d="M170 1464H346V553Q346 330 440 227Q536 123 737 123T1034 227Q1128 329 1128 553V1464H1305V553Q1305 256 1164 109T738 -39T312 108T170 553V1464Z" />
<glyph unicode="V" glyph-name="V" horiz-adv-x="1187" d="M594 -57L-25 1464H164L594 344L1022 1464H1210L594 -57Z" />
<glyph unicode="W" glyph-name="W" horiz-adv-x="1869" d="M-14 1464H174L545 387L932 1522L1323 387L1696 1464H1884L1317 -57L934 1075L553 -57L-14 1464Z" />
<glyph unicode="X" glyph-name="X" horiz-adv-x="1081" d="M-12 0L438 778L18 1464H227L541 907L844 1464H1042L627 762L1094 0H889L528 631L186 0H-12Z" />
<glyph unicode="Y" glyph-name="Y" horiz-adv-x="1169" d="M498 0V670L2 1464H203L586 829L967 1464H1167L672 670V0H498Z" />
<glyph unicode="Z" glyph-name="Z" horiz-adv-x="1157" d="M-10 0L813 1305H145V1464H1108L293 166H1075V0H-10Z" />
<glyph unicode="[" glyph-name="bracketleft" horiz-adv-x="589" d="M330 -276H512V-412H188V1497H512V1362H330V-276Z" />
<glyph unicode="\" glyph-name="backslash" horiz-adv-x="851" d="M717 -190L0 1497H135L854 -190H717Z" />
<glyph unicode="]" glyph-name="bracketright" horiz-adv-x="589" d="M260 -276V1362H78V1497H401V-412H78V-276H260Z" />
<glyph unicode="^" glyph-name="asciicircum" horiz-adv-x="2048" d="M1104 1458L1624 901H1466L1024 1339L582 901H422L942 1458H1104Z" />
<glyph unicode="_" glyph-name="underscore" horiz-adv-x="1024" d="M1024 -365V-483H0V-365H1024Z" />
<glyph unicode="`" glyph-name="grave" horiz-adv-x="1024" d="M655 1059H535L250 1407H451L655 1059Z" />
<glyph unicode="a" glyph-name="a" horiz-adv-x="1163" d="M860 291T860 448T776 698Q690 792 555 793Q416 793 336 707T256 463Q256 295 336 207Q416 117 561 117Q698 117 780 205Q860 291 860 448ZM1012 915V0H860V166Q807 68 719 15T528 -39Q331 -39 211 96Q90
233 90 455Q90 684 207 815Q324 948 520 948Q635 948 719 897T856 743V915H1012Z" />
<glyph unicode="b" glyph-name="b" horiz-adv-x="1169" d="M309 453Q309 291 391 203Q475 113 616 113Q755 113 836 209Q916 304 915 473Q915 620 838 709Q762 793 621 793Q482 793 396 701T309 453ZM160 1550H315V743Q366 843 453 897Q535 948 649 948Q846 948
963 813Q1082 676 1082 455T961 96Q840 -39 643 -39Q539 -39 451 14Q365 65 309 166V0H160V1550Z" />
<glyph unicode="c" glyph-name="c" horiz-adv-x="919" d="M862 217V35Q801 -2 723 -20Q647 -38 555 -39Q342 -39 213 96T84 449Q84 674 217 809Q352 948 561 948Q631 948 709 932Q777 918 846 885V717Q789 754 723 776Q662 796 592 797Q436 797 344 700Q252 606
252 444Q252 307 346 209Q438 113 580 113Q652 113 719 137Q790 164 862 217Z" />
<glyph unicode="d" glyph-name="d" horiz-adv-x="1169" d="M860 453Q860 609 774 701T551 793Q410 793 334 709Q256 621 256 473Q256 304 336 209Q416 113 553 113Q694 113 778 203Q860 291 860 453ZM1012 1550V0H860V166Q803 64 721 14Q633 -39 528 -39Q331 -39
211 96Q90 233 90 454T209 813Q326 948 522 948Q639 948 721 897Q804 845 856 743V1550H1012Z" />
<glyph unicode="e" glyph-name="e" horiz-adv-x="1052" d="M809 561Q799 686 729 748Q653 814 530 813Q416 813 340 745Q264 679 252 561H809ZM977 434H252V420Q252 273 336 183T555 92Q647 92 721 141T852 291L971 211Q905 90 795 25Q689 -38 547 -39Q338 -39
209 98Q80 236 80 461Q80 676 209 813T537 950Q738 950 858 819Q977 692 977 465V434Z" />
<glyph unicode="f" glyph-name="f" horiz-adv-x="591" d="M201 0V786H25V915H201V1180Q201 1411 258 1489Q315 1569 465 1569Q512 1569 535 1565Q580 1557 600 1548V1386Q580 1398 539 1411Q512 1419 477 1419Q409 1419 383 1374Q356 1327 356 1159V915H600V786H360V0H201Z"
/>
<glyph unicode="g" glyph-name="g" horiz-adv-x="1167" d="M860 455Q860 607 776 702Q694 796 555 796T336 711T256 467Q256 299 336 211Q416 121 561 121Q700 121 780 209Q860 298 860 455ZM1012 915V16Q1012 -136 991 -197Q968 -263 926 -309Q858 -379 770 -412Q676
-447 557 -446Q352 -446 233 -350Q116 -254 111 -82H287V-94Q287 -198 358 -253T559 -309Q651 -309 719 -279Q789 -246 821 -188Q843 -154 852 -109Q860 -68 860 20V92V174Q807 76 721 23Q637 -28 528 -29Q329 -29 211 104Q90 241 90 461Q90 685 207 817Q324 948
520 948Q637 948 721 897Q809 844 856 745V915H1012Z" />
<glyph unicode="h" glyph-name="h" horiz-adv-x="1140" d="M160 0V1550H313V774Q370 862 455 905Q537 948 647 948Q807 948 899 862T991 623V0H831V539Q831 676 772 745Q713 813 592 813Q524 813 465 788Q410 763 369 715Q340 676 328 633Q316 587 315 473V0H160Z" />
<glyph unicode="i" glyph-name="i" horiz-adv-x="495" d="M131 1356Q131 1403 164 1436Q199 1471 246 1470Q291 1470 325 1436T360 1354T328 1274T246 1241T164 1274T131 1356ZM168 0V915H326V0H168Z" />
<glyph unicode="j" glyph-name="j" horiz-adv-x="495" d="M131 1356Q131 1403 164 1436Q199 1471 246 1470Q291 1470 325 1436T360 1354T328 1274T246 1241T164 1274T131 1356ZM168 -446V915H326V-446H168Z" />
<glyph unicode="k" glyph-name="k" horiz-adv-x="1009" d="M162 0V1550H319V500L760 915H969L512 496L1010 0H791L319 483V0H162Z" />
<glyph unicode="l" glyph-name="l" horiz-adv-x="495" d="M168 0V1550H328V0H168Z" />
<glyph unicode="m" glyph-name="m" horiz-adv-x="1736" d="M1434 0V539Q1434 678 1379 745T1206 813Q1141 813 1090 788Q1041 765 999 715Q972 680 960 631T948 473V0H797V539Q797 678 742 745T569 813Q506 813 451 788Q402 768 360 715Q331 676 322 635Q312 596
311 473V0H160V915H313V774Q372 864 449 905Q529 948 631 948Q742 948 819 901Q899 854 938 762Q993 854 1077 901Q1159 948 1264 948Q1418 948 1503 862T1589 623V0H1434Z" />
<glyph unicode="n" glyph-name="n" horiz-adv-x="1140" d="M160 0V915H313V774Q370 862 455 905Q537 948 647 948Q807 948 899 862T991 623V0H831V539Q831 676 772 745Q713 813 592 813Q524 813 465 788Q410 763 369 715Q340 676 328 633Q316 587 315 473V0H160Z" />
<glyph unicode="o" glyph-name="o" horiz-adv-x="1163" d="M252 455Q252 308 348 209Q446 109 584 109Q723 109 817 209Q913 311 913 454T817 700Q723 800 584 801Q443 801 348 700Q252 598 252 455ZM86 455Q86 556 123 645Q160 733 231 805Q301 875 391 911Q479
948 584 948Q685 948 774 911Q860 876 936 803Q1008 735 1044 645Q1081 556 1081 455Q1081 357 1045 267T936 109Q860 37 772 0Q678 -39 584 -39Q483 -39 393 -2T232 106T123 266Q86 357 86 455Z" />
<glyph unicode="p" glyph-name="p" horiz-adv-x="1169" d="M311 455Q311 299 395 209Q483 115 621 115Q756 115 835 201T915 436Q915 605 836 700Q756 796 618 797Q475 797 393 707T311 455ZM160 -446V915H309V743Q362 841 449 895Q537 948 643 948Q840 948 961
813Q1082 676 1081 455Q1081 230 963 94Q846 -39 649 -39Q534 -39 453 12Q367 65 315 166V-446H160Z" />
<glyph unicode="q" glyph-name="q" horiz-adv-x="1169" d="M860 455Q860 617 778 707T553 797Q414 797 334 700Q254 605 254 436Q254 284 332 201Q412 115 549 115T774 209Q860 301 860 455ZM1012 -446H856V166Q804 65 721 12Q639 -39 522 -39Q323 -39 207 94Q90
225 90 455Q90 676 211 813Q332 948 528 948Q632 948 721 895Q807 842 860 743V915H1012V-446Z" />
<glyph unicode="r" glyph-name="r" horiz-adv-x="718" d="M162 0V915H301V725Q364 844 434 895T608 946Q628 946 662 942Q685 940 715 928L662 786Q623 798 610 801Q577 805 565 805Q440 805 379 715Q318 627 317 446V0H162Z" />
<glyph unicode="s" glyph-name="s" horiz-adv-x="833" d="M63 154L197 244Q232 174 293 135Q352 98 430 98T555 135T602 236Q602 285 569 315Q532 350 459 375L432 385Q98 498 98 672Q98 793 188 870T422 948Q539 948 627 901Q709 858 748 766L621 688Q594 751
539 784Q482 819 412 819Q340 819 299 780Q256 741 256 682Q256 600 438 541L492 524Q643 475 700 414Q757 355 758 252Q758 121 666 41T424 -39Q293 -39 207 8Q116 58 63 154Z" />
<glyph unicode="t" glyph-name="t" horiz-adv-x="528" d="M184 786H16V915H184V1284H344V915H512V786H344V0H184V786Z" />
<glyph unicode="u" glyph-name="u" horiz-adv-x="1118" d="M307 915V465Q307 268 365 190Q422 110 563 111Q700 111 760 188Q817 264 817 465V915H977V381Q977 174 871 68T559 -39Q356 -39 250 67T143 381V915H307Z" />
<glyph unicode="v" glyph-name="v" horiz-adv-x="919" d="M461 -57L8 915H184L459 276L735 915H911L461 -57Z" />
<glyph unicode="w" glyph-name="w" horiz-adv-x="1415" d="M721 948L995 291L1241 915H1417L1010 -57L709 645L408 -57L0 915H174L418 291L696 948H721Z" />
<glyph unicode="x" glyph-name="x" horiz-adv-x="886" d="M0 0L352 473L10 915H205L442 588L682 915H877L532 473L887 0H692L442 354L195 0H0Z" />
<glyph unicode="y" glyph-name="y" horiz-adv-x="899" d="M123 -446L371 90L12 915H193L459 258L741 915H913L299 -446H123Z" />
<glyph unicode="z" glyph-name="z" horiz-adv-x="882" d="M31 0L555 778H63V915H831L307 137H827V0H31Z" />
<glyph unicode="{" glyph-name="braceleft" horiz-adv-x="1024" d="M858 1350Q856 1350 849 1351T836 1352H813Q692 1352 649 1305Q606 1259 606 1108V866Q606 700 563 631Q522 561 408 530Q523 499 563 430Q606 360 606 195V-47Q606 -197 649 -242Q692 -289 819
-289H858V-414H823Q725 -414 664 -402T561 -362Q504 -323 483 -262Q460 -194 461 -49V195Q461 347 406 408T217 469H195Q189 469 182 468T172 467V594H195Q201 594 208 593T217 592Q350 592 405 653T461 868V1112Q461 1264 483 1327Q506 1393 561 1425Q602 1452
663 1464T823 1477H858V1350Z" />
<glyph unicode="|" glyph-name="bar" horiz-adv-x="1024" d="M575 1565V-483H449V1565H575Z" />
<glyph unicode="}" glyph-name="braceright" horiz-adv-x="1024" d="M563 1112V868Q563 714 618 653T809 592Q811 592 818 593T831 594H854V467Q852 467 845 468T831 469H809Q674 469 619 408T563 193V-49Q563 -199 541 -266Q521 -327 465 -365Q420 -394 367 -403Q318
-413 207 -414H166V-289Q168 -289 175 -290T188 -291H211Q332 -291 375 -244T418 -45V195Q418 361 461 430Q502 500 616 530Q501 561 461 631Q418 701 418 866V1108Q418 1259 375 1305Q332 1352 205 1352H166V1477H201Q301 1477 362 1465T465 1425Q518 1392 541
1327Q563 1259 563 1112Z" />
<glyph unicode="~" glyph-name="asciitilde" horiz-adv-x="1705" d="M1530 627Q1426 553 1333 518Q1243 483 1143 483Q1094 483 1053 492Q996 504 952 518Q927 526 864 549Q659 621 563 621Q479 621 389 584Q295 545 178 461V594Q276 664 381 702Q479 739 565
739Q620 739 682 727Q735 717 856 674Q862 672 872 668T899 657Q1053 600 1145 600Q1229 600 1319 637T1530 758V627Z" />
<glyph unicode="&#x80;" glyph-name="Euro" horiz-adv-x="1206" d="M1133 283L1126 90Q1046 29 948 -6Q858 -39 760 -39Q531 -39 371 121Q209 283 170 547H4L27 649H160V662Q156 719 156 721Q156 725 157 736T158 756Q160 770 162 805H4L27 911H174Q217 1169 381
1325Q545 1479 770 1479Q870 1479 958 1444T1126 1335V1145Q1046 1234 961 1280Q877 1325 784 1325Q622 1325 506 1214Q393 1108 358 911H977L944 805H342Q342 801 341 789T340 768Q338 743 338 721V678Q338 672 339 663T340 649H897L864 547H354Q383 352 498 233Q615
114 770 115Q866 115 954 156Q1039 195 1133 283Z" />
<glyph unicode="&#xa0;" glyph-name="uni00A0" horiz-adv-x="1206" />
<glyph unicode="&#xa1;" glyph-name="exclamdown" horiz-adv-x="651" d="M209 1331T209 1380T244 1464Q277 1497 328 1497T412 1464Q447 1429 447 1380T412 1297T328 1262T244 1296ZM248 1128H408V-39H248V1128Z" />
<glyph unicode="&#xa2;" glyph-name="cent" horiz-adv-x="1206" d="M606 1075Q487 1063 408 971Q330 881 330 750Q330 607 403 518Q479 426 606 412V1075ZM967 995Q912 1032 838 1055Q775 1075 686 1081V410Q797 424 854 444Q924 469 969 506L967 334Q901 299
838 281Q783 267 686 262V59H606V266Q407 278 285 408Q160 539 160 735T281 1065Q400 1196 606 1221V1382H686V1225Q758 1225 823 1210Q897 1194 967 1165V995Z" />
<glyph unicode="&#xa3;" glyph-name="sterling" horiz-adv-x="1206" d="M86 49Q139 135 202 182T336 236Q359 283 371 326Q381 365 381 422Q381 461 369 504T332 590H96V707H276Q227 830 209 897T190 1022Q190 1223 322 1352Q451 1479 666 1479Q867 1479 981 1366Q1096
1255 1114 1036L948 997Q938 1165 864 1251Q788 1339 655 1339Q528 1339 449 1255T369 1038Q369 972 391 887Q411 807 459 707H844V590H502Q518 549 522 526Q528 492 528 459Q528 406 504 346Q479 288 436 236H444Q533 236 659 180Q786 125 834 125Q885 125 928
156Q973 189 1012 250L1145 162Q1088 58 1014 10Q937 -39 836 -39Q795 -39 756 -31Q713 -21 672 -4Q658 0 618 18Q452 88 385 88Q328 88 287 60T199 -39L86 49Z" />
<glyph unicode="&#xa4;" glyph-name="currency" horiz-adv-x="1206" d="M1133 283L1126 90Q1046 29 948 -6Q858 -39 760 -39Q531 -39 371 121Q209 283 170 547H4L27 649H160V662Q156 719 156 721Q156 725 157 736T158 756Q160 770 162 805H4L27 911H174Q217 1169
381 1325Q545 1479 770 1479Q870 1479 958 1444T1126 1335V1145Q1046 1234 961 1280Q877 1325 784 1325Q622 1325 506 1214Q393 1108 358 911H977L944 805H342Q342 801 341 789T340 768Q338 743 338 721V678Q338 672 339 663T340 649H897L864 547H354Q383 352 498
233Q615 114 770 115Q866 115 954 156Q1039 195 1133 283Z" />
<glyph unicode="&#xa5;" glyph-name="yen" horiz-adv-x="1206" d="M518 0V629H20V750H463L375 891H20V1014H297L25 1450H213L606 801L999 1450H1184L909 1014H1188V891H834L743 750H1188V629H690V0H518Z" />
<glyph unicode="&#xa6;" glyph-name="brokenbar" horiz-adv-x="1024" d="M575 408V-350H449V408H575ZM575 1432V674H449V1432H575Z" />
<glyph unicode="&#xa7;" glyph-name="section" horiz-adv-x="1073" d="M436 285T538 285T717 356Q791 426 791 530Q791 631 717 702Q641 774 539 774T360 702Q286 631 287 530Q287 426 360 356Q436 285 538 285ZM154 -90H324Q328 -196 379 -248Q432 -301 530 -301Q630
-301 683 -254T737 -121Q737 -49 694 -2Q651 44 498 102Q271 191 190 281Q110 369 111 516Q111 657 186 754Q264 854 391 881Q274 924 219 997T164 1176Q164 1328 266 1411Q372 1499 547 1499Q716 1499 805 1413Q895 1327 895 1165V1145H737Q735 1247 684 1300Q635
1353 537 1354Q445 1354 395 1307Q344 1258 344 1174Q344 1127 362 1090Q380 1051 424 1024Q457 999 541 971Q580 957 657 926Q821 858 897 762Q971 670 971 531T901 303Q831 217 690 176Q788 147 848 66Q903 -10 903 -127Q903 -279 803 -367Q705 -453 526 -453Q357
-453 256 -360Q154 -268 154 -111V-90Z" />
<glyph unicode="&#xa8;" glyph-name="dieresis" horiz-adv-x="1024" d="M582 1223Q582 1266 616 1300T694 1335Q741 1335 774 1303T807 1223T774 1143T694 1110T615 1143T582 1223ZM217 1223Q217 1266 252 1300T332 1335Q379 1335 410 1303Q443 1266 442 1223Q442
1172 412 1141T332 1110Q287 1110 250 1143Q217 1174 217 1223Z" />
<glyph unicode="&#xa9;" glyph-name="copyright" horiz-adv-x="1705" d="M1065 911Q1049 991 995 1032Q940 1075 856 1075Q737 1075 674 983Q608 889 608 723Q608 561 674 471Q742 379 856 379Q942 379 1001 428T1075 561H1204Q1192 432 1096 354Q998 274 850
274Q674 274 569 395Q465 515 465 721Q465 926 573 1053Q679 1178 860 1178Q997 1178 1089 1104T1194 911H1065ZM1501 725Q1501 856 1452 975Q1405 1088 1313 1184Q1225 1272 1104 1323Q987 1372 852 1372Q723 1372 604 1325Q491 1280 399 1186Q303 1086 256 973Q207
852 207 725T256 481Q305 366 397 270Q489 178 606 129T852 80Q979 80 1100 129Q1217 176 1315 272Q1409 364 1454 477Q1501 596 1501 725ZM852 1460Q1002 1460 1137 1405T1376 1245Q1476 1145 1531 1010T1587 725Q1587 569 1534 442Q1477 307 1376 209Q1272 105
1130 47Q991 -10 852 -10Q705 -10 574 45T336 207Q232 307 174 446Q119 577 119 725Q119 864 176 1003T338 1247Q436 1347 571 1405Q705 1460 852 1460Z" />
<glyph unicode="&#xaa;" glyph-name="ordfeminine" horiz-adv-x="872" d="M109 668H717V549H109V668ZM637 1378V1475H768V819H637V911Q594 858 530 825Q469 794 395 795Q241 795 149 891T57 1145Q57 1307 149 1403T391 1499Q471 1499 532 1468Q596 1435 637 1378ZM416
1380Q312 1380 257 1319T201 1147Q201 1038 260 975Q319 914 422 913Q522 913 579 972T637 1141Q637 1245 576 1312T416 1380Z" />
<glyph unicode="&#xab;" glyph-name="guillemotleft" horiz-adv-x="851" d="M684 49L430 453L674 860L780 793L573 453L782 121L684 49ZM319 49L68 453L311 860L416 793L211 453L418 121L319 49Z" />
<glyph unicode="&#xac;" glyph-name="logicalnot" horiz-adv-x="1705" d="M1452 858V356H1337V741H254V858H1452Z" />
<glyph unicode="&#xad;" glyph-name="uni00AD" horiz-adv-x="749" d="M141 535H608V377H141V535Z" />
<glyph unicode="&#xae;" glyph-name="registered" horiz-adv-x="1705" d="M846 1065H702V774H850Q973 774 1024 807Q1077 842 1077 915Q1077 993 1022 1030Q971 1065 846 1065ZM872 1157Q1052 1157 1137 1100Q1223 1041 1223 926Q1223 838 1169 778Q1114 717 1026
702L1214 317H1057L881 682H702V317H561V1157H872ZM1501 721Q1501 853 1452 973Q1405 1090 1315 1182Q1219 1274 1104 1323Q987 1372 852 1372Q721 1372 604 1325Q493 1280 401 1188Q303 1090 256 975Q207 856 207 725Q207 598 256 481Q305 366 397 270Q491 176
604 129Q721 80 850 80T1100 129Q1217 176 1313 270Q1403 356 1452 475Q1501 592 1501 721ZM852 1460Q1002 1460 1137 1405Q1268 1352 1376 1243Q1474 1145 1532 1008Q1587 876 1587 725T1532 442Q1475 307 1374 209Q1270 105 1131 48T852 -10Q705 -10 574 45T334
209Q230 313 174 446Q119 577 119 725Q119 875 176 1008Q235 1145 340 1249Q440 1351 571 1407Q698 1460 852 1460Z" />
<glyph unicode="&#xaf;" glyph-name="overscore" horiz-adv-x="1024" d="M242 1153V1292H782V1153H242Z" />
<glyph unicode="&#xb0;" glyph-name="degree" horiz-adv-x="673" d="M539 1171Q539 1255 481 1313Q422 1372 338 1372T195 1313T135 1171Q135 1087 194 1028T338 969T481 1028Q539 1085 539 1171ZM338 1454Q455 1454 539 1370Q621 1288 621 1171Q621 1056 537
973T336 889T137 971T55 1171T137 1372T338 1454Z" />
<glyph unicode="&#xb1;" glyph-name="plusminus" horiz-adv-x="1705" d="M1452 158V41H254V158H1452ZM913 1180V836H1452V719H913V375H795V719H254V836H795V1180H913Z" />
<glyph unicode="&#xb2;" glyph-name="uni00B2" horiz-adv-x="796" d="M657 676V575H76L281 795L342 862Q575 1114 575 1212Q575 1280 522 1323Q471 1366 383 1366T244 1319Q195 1274 195 1186V1176H86V1200Q86 1325 166 1393Q248 1463 387 1463T608 1397Q688 1332
688 1219Q688 1136 633 1047Q574 953 442 823L293 676H657Z" />
<glyph unicode="&#xb3;" glyph-name="uni00B3" horiz-adv-x="796" d="M74 799H193V788Q193 720 242 680Q289 641 373 641Q463 641 518 686Q571 729 571 811Q571 897 518 940Q467 983 360 983H328V1069Q330 1069 334 1068T342 1067H358Q460 1067 508 1106Q559 1147
559 1225Q559 1293 512 1333T387 1374Q305 1374 256 1335Q209 1296 205 1229H92Q98 1342 176 1403Q250 1462 391 1462Q522 1462 602 1399Q680 1338 680 1229Q680 1149 635 1098Q588 1045 508 1024Q594 1012 643 954T692 807Q692 688 606 621T369 553Q236 553 154
616Q74 677 74 782V799Z" />
<glyph unicode="&#xb4;" glyph-name="acute" horiz-adv-x="1024" d="M369 1059L573 1407H774L489 1059H369Z" />
<glyph unicode="&#xb5;" glyph-name="uni00B5" horiz-adv-x="1126" d="M362 1069L236 473Q230 450 225 408Q221 363 221 336Q221 225 279 168Q338 109 438 109Q561 109 645 211Q728 312 774 518L895 1069H1051L889 315Q885 299 882 284T877 253T872 231Q866 200
866 180Q866 147 885 131Q905 115 938 115H956Q958 115 964 116T973 117L946 -8Q934 -12 901 -16Q887 -18 854 -18Q784 -18 750 16T709 129Q670 61 592 20Q516 -19 420 -18Q334 -18 268 16Q200 51 158 119L45 -426H-111L205 1069H362Z" />
<glyph unicode="&#xb6;" glyph-name="paragraph" horiz-adv-x="1024" d="M948 1401H823V0H729V1401H547V0H451V782Q275 792 176 885Q76 979 76 1130Q76 1286 184 1382T469 1479H948V1401Z" />
<glyph unicode="&#xb7;" glyph-name="middot" horiz-adv-x="602" d="M182 672T182 721T217 805T301 840Q348 840 387 805Q422 772 422 721T387 637Q348 602 301 602Q252 602 217 637Z" />
<glyph unicode="&#xb8;" glyph-name="cedilla" horiz-adv-x="1024" d="M256 -426V-326Q348 -349 399 -354Q471 -364 502 -365Q563 -365 592 -344Q623 -322 623 -283Q623 -238 590 -218T489 -197H459Q455 -197 448 -198T436 -199V0H512V-102H541Q650 -102 707 -147T764
-283T700 -422Q634 -471 514 -471Q463 -471 399 -459Q317 -442 256 -426Z" />
<glyph unicode="&#xb9;" glyph-name="uni00B9" horiz-adv-x="798" d="M369 575V1354H172L236 1446H481V575H369Z" />
<glyph unicode="&#xba;" glyph-name="ordmasculine" horiz-adv-x="872" d="M111 666H764V547H111V666ZM537 1378T437 1378T268 1311Q198 1241 198 1145T268 979Q336 911 436 911T606 979T676 1145T607 1310ZM436 1497Q596 1497 709 1395Q820 1295 819 1145Q819
1004 707 897Q596 793 436 793T166 897T55 1145Q55 1290 166 1395Q274 1497 436 1497Z" />
<glyph unicode="&#xbb;" glyph-name="guillemotright" horiz-adv-x="851" d="M166 49L68 121L274 453L70 793L174 860L418 453L166 49ZM530 49L430 121L639 453L432 793L539 860L782 453L530 49Z" />
<glyph unicode="&#xbc;" glyph-name="onequarter" horiz-adv-x="1865" d="M1565 0V176H1133L1626 827H1673V256H1782V176H1673V0H1565ZM1565 256V616L1294 256H1565ZM420 -39L1319 1479H1444L545 -39H420ZM352 633V1360H164L225 1444H459V633H352Z" />
<glyph unicode="&#xbd;" glyph-name="onehalf" horiz-adv-x="1865" d="M1733 92V0H1176L1370 205L1425 264Q1652 501 1653 596Q1653 659 1602 698Q1549 739 1470 739Q1384 739 1337 696T1290 569V561H1186V582Q1186 699 1262 762Q1340 828 1475 827Q1612 827 1686
768Q1762 707 1761 600Q1761 522 1710 440Q1659 360 1528 231L1382 92H1733ZM420 -39L1319 1479H1444L545 -39H420ZM352 633V1360H164L225 1444H459V633H352Z" />
<glyph unicode="&#xbe;" glyph-name="threequarters" horiz-adv-x="1863" d="M1565 0V176H1133L1626 827H1673V256H1782V176H1673V0H1565ZM1565 256V616L1294 256H1565ZM420 -39L1319 1479H1444L545 -39H420ZM72 840H182V831Q182 768 229 731Q274 694 354 694Q448
694 496 735Q545 778 545 854Q545 934 494 973Q441 1014 344 1014H324Q322 1014 318 1013T311 1012V1094H328Q332 1094 336 1093T342 1092Q434 1092 485 1130Q534 1167 535 1239Q535 1305 492 1341T371 1378Q289 1378 246 1343Q201 1306 197 1241H88Q94 1350 168
1405T373 1460T575 1403Q649 1345 649 1243Q649 1169 606 1120Q561 1069 485 1051Q569 1039 614 985Q661 928 662 850Q662 737 580 674T350 610Q225 610 147 670Q71 727 72 825V840Z" />
<glyph unicode="&#xbf;" glyph-name="questiondown" horiz-adv-x="1064" d="M676 1427T676 1378T641 1295T557 1260T473 1294T438 1378T473 1462T557 1497T641 1462ZM387 793H231V823Q231 975 311 1059T541 1143Q676 1143 758 1065Q836 989 836 852Q836 760 784
688Q731 614 590 514L549 485Q359 356 358 262Q358 190 406 152Q457 111 535 111Q623 111 672 166T721 324H883V297Q883 145 786 53Q691 -39 535 -39Q369 -39 277 47T184 283Q184 375 237 446T449 623Q455 627 460 630T473 638T494 651Q672 766 672 870Q672 923
633 960T537 997Q461 997 424 948T387 801V793Z" />
<glyph unicode="&#xc0;" glyph-name="Agrave" horiz-adv-x="1280" d="M639 1137L406 598H872L639 1137ZM639 1522L1305 0H1116L926 449H354L164 0H-25L639 1522ZM784 1610H664L379 1958H580L784 1610Z" />
<glyph unicode="&#xc1;" glyph-name="Aacute" horiz-adv-x="1280" d="M639 1137L406 598H872L639 1137ZM639 1522L1305 0H1116L926 449H354L164 0H-25L639 1522ZM498 1610L702 1958H903L618 1610H498Z" />
<glyph unicode="&#xc2;" glyph-name="Acircumflex" horiz-adv-x="1280" d="M639 1137L406 598H872L639 1137ZM639 1522L1305 0H1116L926 449H354L164 0H-25L639 1522ZM346 1610L543 1958H739L936 1610H813L641 1839L467 1610H346Z" />
<glyph unicode="&#xc3;" glyph-name="Atilde" horiz-adv-x="1280" d="M639 1137L406 598H872L639 1137ZM639 1522L1305 0H1116L926 449H354L164 0H-25L639 1522ZM934 1888Q911 1784 864 1733Q815 1680 737 1679Q719 1679 707 1681Q687 1685 672 1690L575 1716Q571
1718 562 1720T549 1722Q541 1724 526 1725Q491 1725 473 1708Q450 1690 436 1657H348Q366 1757 416 1808Q465 1861 541 1862Q564 1862 574 1860T600 1854L698 1825L731 1817Q739 1815 752 1815Q785 1815 809 1833Q829 1847 846 1888H934Z" />
<glyph unicode="&#xc4;" glyph-name="Adieresis" horiz-adv-x="1280" d="M639 1137L406 598H872L639 1137ZM639 1522L1305 0H1116L926 449H354L164 0H-25L639 1522ZM711 1774Q711 1817 745 1851T823 1886Q870 1886 903 1854T936 1774T903 1694T823 1661T744 1694T711
1774ZM346 1774Q346 1817 381 1851T461 1886Q508 1886 539 1854Q572 1817 571 1774Q571 1723 541 1692T461 1661Q416 1661 379 1694Q346 1725 346 1774Z" />
<glyph unicode="&#xc5;" glyph-name="Aring" horiz-adv-x="1280" d="M518 1733Q518 1680 553 1645Q590 1608 641 1608Q694 1608 731 1644T768 1732T731 1821T641 1858Q592 1858 555 1821T518 1733ZM401 1630T401 1732T471 1903Q545 1973 641 1973T811 1903Q881
1835 881 1733T811 1563Q737 1493 641 1493T471 1563Q401 1630 401 1732ZM629 1460H655L1305 0H1116L926 449H354L164 0H-25L629 1460ZM639 1137L406 598H872L639 1137Z" />
<glyph unicode="&#xc6;" glyph-name="AE" horiz-adv-x="1765" d="M-25 0L596 1464H1364L1391 1309H745L928 879H1565L1593 723H995L1233 162H1845L1874 0H1116L926 449H354L164 0H-25ZM406 598H872L639 1167L406 598Z" />
<glyph unicode="&#xc7;" glyph-name="Ccedilla" horiz-adv-x="1484" d="M1364 1114Q1260 1227 1141 1282Q1021 1337 877 1337Q764 1337 651 1290Q540 1243 459 1159Q379 1075 334 965Q291 856 291 727Q291 625 315 539Q340 457 391 381Q479 256 608 189T885 121Q1028
121 1145 178Q1264 235 1364 352V121Q1260 43 1131 2T870 -39Q757 -39 643 -4Q541 27 438 96Q278 207 193 369Q109 529 109 725Q109 889 166 1032Q221 1170 338 1284Q451 1395 586 1446Q723 1499 883 1499Q1012 1499 1128 1460Q1249 1419 1364 1341V1114ZM612 -426V-326Q704
-349 755 -354Q827 -364 858 -365Q919 -365 948 -344Q979 -322 979 -283Q979 -238 946 -218T845 -197H815Q811 -197 804 -198T792 -199V0H868V-102H897Q1006 -102 1063 -147T1120 -283T1056 -422Q990 -471 870 -471Q819 -471 755 -459Q673 -442 612 -426Z" />
<glyph unicode="&#xc8;" glyph-name="Egrave" horiz-adv-x="1064" d="M176 0V1464H948V1305H350V885H948V723H350V162H948V0H176ZM710 1610H590L305 1958H506L710 1610Z" />
<glyph unicode="&#xc9;" glyph-name="Eacute" horiz-adv-x="1064" d="M176 0V1464H948V1305H350V885H948V723H350V162H948V0H176ZM424 1610L628 1958H829L544 1610H424Z" />
<glyph unicode="&#xca;" glyph-name="Ecircumflex" horiz-adv-x="1064" d="M176 0V1464H948V1305H350V885H948V723H350V162H948V0H176ZM272 1610L469 1958H665L862 1610H739L567 1839L393 1610H272Z" />
<glyph unicode="&#xcb;" glyph-name="Edieresis" horiz-adv-x="1064" d="M176 0V1464H948V1305H350V885H948V723H350V162H948V0H176ZM637 1774Q637 1817 671 1851T749 1886Q796 1886 829 1854T862 1774T829 1694T749 1661T670 1694T637 1774ZM272 1774Q272 1817
307 1851T387 1886Q434 1886 465 1854Q498 1817 497 1774Q497 1723 467 1692T387 1661Q342 1661 305 1694Q272 1725 272 1774Z" />
<glyph unicode="&#xcc;" glyph-name="Igrave" horiz-adv-x="528" d="M178 0V1464H352V0H178ZM409 1610H289L4 1958H205L409 1610Z" />
<glyph unicode="&#xcd;" glyph-name="Iacute" horiz-adv-x="528" d="M178 0V1464H352V0H178ZM123 1610L327 1958H528L243 1610H123Z" />
<glyph unicode="&#xce;" glyph-name="Icircumflex" horiz-adv-x="528" d="M178 0V1464H352V0H178ZM-29 1610L168 1958H364L561 1610H438L266 1839L92 1610H-29Z" />
<glyph unicode="&#xcf;" glyph-name="Idieresis" horiz-adv-x="528" d="M178 0V1464H352V0H178ZM336 1774Q336 1817 370 1851T448 1886Q495 1886 528 1854T561 1774T528 1694T448 1661T369 1694T336 1774ZM-29 1774Q-29 1817 6 1851T86 1886Q133 1886 164 1854Q197
1817 196 1774Q196 1723 166 1692T86 1661Q41 1661 4 1694Q-29 1725 -29 1774Z" />
<glyph unicode="&#xd0;" glyph-name="Eth" horiz-adv-x="1492" d="M184 0V741H0V893H184V1464H465Q768 1464 905 1432Q1032 1401 1128 1327Q1257 1227 1321 1077Q1387 923 1387 731T1321 385Q1258 238 1128 137Q1030 61 909 31Q786 0 528 0H465H184ZM360 164H473Q743
164 848 188Q957 215 1020 268Q1110 342 1155 461Q1202 584 1202 733Q1202 889 1157 1004Q1110 1125 1020 1196Q954 1253 844 1278Q738 1303 473 1303H360V893H758V741H360V164Z" />
<glyph unicode="&#xd1;" glyph-name="Ntilde" horiz-adv-x="1585" d="M176 0V1522L1247 352V1464H1413V-57L342 1100V0H176ZM1088 1888Q1065 1784 1018 1733Q969 1680 891 1679Q873 1679 861 1681Q841 1685 826 1690L729 1716Q725 1718 716 1720T703 1722Q695
1724 680 1725Q645 1725 627 1708Q604 1690 590 1657H502Q520 1757 570 1808Q619 1861 695 1862Q718 1862 728 1860T754 1854L852 1825L885 1817Q893 1815 906 1815Q939 1815 963 1833Q983 1847 1000 1888H1088Z" />
<glyph unicode="&#xd2;" glyph-name="Ograve" horiz-adv-x="1781" d="M766 125T891 125T1120 170Q1229 217 1315 303Q1399 387 1446 498Q1491 602 1491 729Q1491 854 1446 963Q1399 1076 1315 1159T1120 1290Q1016 1335 891 1335Q764 1335 659 1290Q546 1241 467
1159Q383 1075 336 963Q291 854 291 729Q291 612 336 500Q377 396 467 303Q553 217 662 170Q766 125 891 125ZM1673 891T1673 729T1616 432Q1559 295 1446 186Q1335 80 1190 20Q1043 -39 891 -39T592 20Q449 77 338 186T168 434Q109 575 109 729Q109 885 168 1026Q227
1165 338 1273T592 1440Q733 1497 891 1497Q1051 1497 1192 1440Q1335 1383 1445 1274T1616 1026Q1673 891 1673 729ZM1034 1610H914L629 1958H830L1034 1610Z" />
<glyph unicode="&#xd3;" glyph-name="Oacute" horiz-adv-x="1781" d="M766 125T891 125T1120 170Q1229 217 1315 303Q1399 387 1446 498Q1491 602 1491 729Q1491 854 1446 963Q1399 1076 1315 1159T1120 1290Q1016 1335 891 1335Q764 1335 659 1290Q546 1241 467
1159Q383 1075 336 963Q291 854 291 729Q291 612 336 500Q377 396 467 303Q553 217 662 170Q766 125 891 125ZM1673 891T1673 729T1616 432Q1559 295 1446 186Q1335 80 1190 20Q1043 -39 891 -39T592 20Q449 77 338 186T168 434Q109 575 109 729Q109 885 168 1026Q227
1165 338 1273T592 1440Q733 1497 891 1497Q1051 1497 1192 1440Q1335 1383 1445 1274T1616 1026Q1673 891 1673 729ZM748 1610L952 1958H1153L868 1610H748Z" />
<glyph unicode="&#xd4;" glyph-name="Ocircumflex" horiz-adv-x="1781" d="M766 125T891 125T1120 170Q1229 217 1315 303Q1399 387 1446 498Q1491 602 1491 729Q1491 854 1446 963Q1399 1076 1315 1159T1120 1290Q1016 1335 891 1335Q764 1335 659 1290Q546 1241
467 1159Q383 1075 336 963Q291 854 291 729Q291 612 336 500Q377 396 467 303Q553 217 662 170Q766 125 891 125ZM1673 891T1673 729T1616 432Q1559 295 1446 186Q1335 80 1190 20Q1043 -39 891 -39T592 20Q449 77 338 186T168 434Q109 575 109 729Q109 885 168
1026Q227 1165 338 1273T592 1440Q733 1497 891 1497Q1051 1497 1192 1440Q1335 1383 1445 1274T1616 1026Q1673 891 1673 729ZM596 1610L793 1958H989L1186 1610H1063L891 1839L717 1610H596Z" />
<glyph unicode="&#xd5;" glyph-name="Otilde" horiz-adv-x="1781" d="M766 125T891 125T1120 170Q1229 217 1315 303Q1399 387 1446 498Q1491 602 1491 729Q1491 854 1446 963Q1399 1076 1315 1159T1120 1290Q1016 1335 891 1335Q764 1335 659 1290Q546 1241 467
1159Q383 1075 336 963Q291 854 291 729Q291 612 336 500Q377 396 467 303Q553 217 662 170Q766 125 891 125ZM1673 891T1673 729T1616 432Q1559 295 1446 186Q1335 80 1190 20Q1043 -39 891 -39T592 20Q449 77 338 186T168 434Q109 575 109 729Q109 885 168 1026Q227
1165 338 1273T592 1440Q733 1497 891 1497Q1051 1497 1192 1440Q1335 1383 1445 1274T1616 1026Q1673 891 1673 729ZM1184 1888Q1161 1784 1114 1733Q1065 1680 987 1679Q969 1679 957 1681Q937 1685 922 1690L825 1716Q821 1718 812 1720T799 1722Q791 1724 776
1725Q741 1725 723 1708Q700 1690 686 1657H598Q616 1757 666 1808Q715 1861 791 1862Q814 1862 824 1860T850 1854L948 1825L981 1817Q989 1815 1002 1815Q1035 1815 1059 1833Q1079 1847 1096 1888H1184Z" />
<glyph unicode="&#xd6;" glyph-name="Odieresis" horiz-adv-x="1781" d="M766 125T891 125T1120 170Q1229 217 1315 303Q1399 387 1446 498Q1491 602 1491 729Q1491 854 1446 963Q1399 1076 1315 1159T1120 1290Q1016 1335 891 1335Q764 1335 659 1290Q546 1241
467 1159Q383 1075 336 963Q291 854 291 729Q291 612 336 500Q377 396 467 303Q553 217 662 170Q766 125 891 125ZM1673 891T1673 729T1616 432Q1559 295 1446 186Q1335 80 1190 20Q1043 -39 891 -39T592 20Q449 77 338 186T168 434Q109 575 109 729Q109 885 168
1026Q227 1165 338 1273T592 1440Q733 1497 891 1497Q1051 1497 1192 1440Q1335 1383 1445 1274T1616 1026Q1673 891 1673 729ZM961 1774Q961 1817 995 1851T1073 1886Q1120 1886 1153 1854T1186 1774T1153 1694T1073 1661T994 1694T961 1774ZM596 1774Q596 1817
631 1851T711 1886Q758 1886 789 1854Q822 1817 821 1774Q821 1723 791 1692T711 1661Q666 1661 629 1694Q596 1725 596 1774Z" />
<glyph unicode="&#xd7;" glyph-name="multiply" horiz-adv-x="1705" d="M858 692L1333 1169L1415 1087L940 610L1415 135L1333 53L858 528L381 53L301 135L776 610L301 1087L381 1169L858 692Z" />
<glyph unicode="&#xd8;" glyph-name="Oslash" horiz-adv-x="1781" d="M1260 1210Q1180 1271 1083 1305Q985 1338 891 1337Q766 1337 662 1292Q551 1245 467 1161T336 965Q291 856 291 731Q291 608 330 510Q370 409 440 332L1260 1210ZM524 252Q604 189 694 158Q786
127 891 127Q1010 127 1122 172Q1231 215 1317 301Q1401 387 1446 500Q1491 611 1491 737Q1491 843 1454 942Q1419 1036 1341 1133L524 252ZM242 -49L162 33L322 205Q222 303 164 442Q109 577 109 731T168 1026Q227 1165 338 1274Q451 1385 592 1442Q731 1499 891
1499Q1026 1499 1149 1456Q1276 1411 1374 1333L1534 1503L1614 1423L1460 1260Q1562 1162 1618 1024Q1673 889 1673 731Q1673 577 1614 436Q1555 297 1444 188Q1335 82 1190 23Q1051 -34 891 -35Q766 -35 643 6T408 129L242 -49Z" />
<glyph unicode="&#xd9;" glyph-name="Ugrave" horiz-adv-x="1474" d="M170 1464H346V553Q346 330 440 227Q536 123 737 123T1034 227Q1128 329 1128 553V1464H1305V553Q1305 256 1164 109T738 -39T312 108T170 553V1464ZM880 1610H760L475 1958H676L880 1610Z" />
<glyph unicode="&#xda;" glyph-name="Uacute" horiz-adv-x="1474" d="M170 1464H346V553Q346 330 440 227Q536 123 737 123T1034 227Q1128 329 1128 553V1464H1305V553Q1305 256 1164 109T738 -39T312 108T170 553V1464ZM594 1610L798 1958H999L714 1610H594Z" />
<glyph unicode="&#xdb;" glyph-name="Ucircumflex" horiz-adv-x="1474" d="M170 1464H346V553Q346 330 440 227Q536 123 737 123T1034 227Q1128 329 1128 553V1464H1305V553Q1305 256 1164 109T738 -39T312 108T170 553V1464ZM442 1610L639 1958H835L1032 1610H909L737
1839L563 1610H442Z" />
<glyph unicode="&#xdc;" glyph-name="Udieresis" horiz-adv-x="1474" d="M170 1464H346V553Q346 330 440 227Q536 123 737 123T1034 227Q1128 329 1128 553V1464H1305V553Q1305 256 1164 109T738 -39T312 108T170 553V1464ZM807 1774Q807 1817 841 1851T919 1886Q966
1886 999 1854T1032 1774T999 1694T919 1661T840 1694T807 1774ZM442 1774Q442 1817 477 1851T557 1886Q604 1886 635 1854Q668 1817 667 1774Q667 1723 637 1692T557 1661Q512 1661 475 1694Q442 1725 442 1774Z" />
<glyph unicode="&#xdd;" glyph-name="Yacute" horiz-adv-x="1169" d="M498 0V670L2 1464H203L586 829L967 1464H1167L672 670V0H498ZM443 1610L647 1958H848L563 1610H443Z" />
<glyph unicode="&#xde;" glyph-name="Thorn" horiz-adv-x="1024" d="M346 516H434Q661 516 737 567T813 750Q813 889 733 948Q655 1005 434 1006H346V516ZM346 356V0H176V1464H346V1165H461Q649 1165 717 1149Q791 1131 852 1090Q920 1039 961 952Q1002 864 1002
760T961 567Q918 475 852 430Q799 391 721 373Q653 357 483 356H434H346Z" />
<glyph unicode="&#xdf;" glyph-name="germandbls" horiz-adv-x="1175" d="M170 0V791H41V922H170V1184Q170 1365 274 1466Q380 1568 561 1569Q737 1569 845 1465T954 1190Q954 1069 901 987Q848 907 743 879Q907 867 991 756Q1079 639 1079 449Q1079 232 952 98Q827
-33 614 -33Q577 -33 555 -29Q502 -19 475 -12V141Q504 127 539 121Q584 113 610 113Q751 113 829 201Q905 285 905 449Q905 615 817 707Q731 795 559 795Q557 795 508 791H502V938Q504 938 510 937T520 936H547Q666 936 729 995Q790 1052 790 1169T731 1352Q674
1415 561 1415Q489 1415 436 1386Q379 1355 354 1309Q338 1282 332 1245Q326 1204 326 1122V1030V0H170Z" />
<glyph unicode="&#xe0;" glyph-name="agrave" horiz-adv-x="1163" d="M860 291T860 448T776 698Q690 792 555 793Q416 793 336 707T256 463Q256 295 336 207Q416 117 561 117Q698 117 780 205Q860 291 860 448ZM1012 915V0H860V166Q807 68 719 15T528 -39Q331
-39 211 96Q90 233 90 455Q90 684 207 815Q324 948 520 948Q635 948 719 897T856 743V915H1012ZM727 1059H607L322 1407H523L727 1059Z" />
<glyph unicode="&#xe1;" glyph-name="aacute" horiz-adv-x="1163" d="M860 291T860 448T776 698Q690 792 555 793Q416 793 336 707T256 463Q256 295 336 207Q416 117 561 117Q698 117 780 205Q860 291 860 448ZM1012 915V0H860V166Q807 68 719 15T528 -39Q331
-39 211 96Q90 233 90 455Q90 684 207 815Q324 948 520 948Q635 948 719 897T856 743V915H1012ZM441 1059L645 1407H846L561 1059H441Z" />
<glyph unicode="&#xe2;" glyph-name="acircumflex" horiz-adv-x="1163" d="M860 291T860 448T776 698Q690 792 555 793Q416 793 336 707T256 463Q256 295 336 207Q416 117 561 117Q698 117 780 205Q860 291 860 448ZM1012 915V0H860V166Q807 68 719 15T528 -39Q331
-39 211 96Q90 233 90 455Q90 684 207 815Q324 948 520 948Q635 948 719 897T856 743V915H1012ZM289 1059L486 1407H682L879 1059H756L584 1288L410 1059H289Z" />
<glyph unicode="&#xe3;" glyph-name="atilde" horiz-adv-x="1163" d="M860 291T860 448T776 698Q690 792 555 793Q416 793 336 707T256 463Q256 295 336 207Q416 117 561 117Q698 117 780 205Q860 291 860 448ZM1012 915V0H860V166Q807 68 719 15T528 -39Q331
-39 211 96Q90 233 90 455Q90 684 207 815Q324 948 520 948Q635 948 719 897T856 743V915H1012ZM877 1337Q854 1233 807 1182Q758 1129 680 1128Q662 1128 650 1130Q630 1134 615 1139L518 1165Q514 1167 505 1169T492 1171Q484 1173 469 1174Q434 1174 416 1157Q393
1139 379 1106H291Q309 1206 359 1257Q408 1310 484 1311Q507 1311 517 1309T543 1303L641 1274L674 1266Q682 1264 695 1264Q728 1264 752 1282Q772 1296 789 1337H877Z" />
<glyph unicode="&#xe4;" glyph-name="adieresis" horiz-adv-x="1163" d="M860 291T860 448T776 698Q690 792 555 793Q416 793 336 707T256 463Q256 295 336 207Q416 117 561 117Q698 117 780 205Q860 291 860 448ZM1012 915V0H860V166Q807 68 719 15T528 -39Q331
-39 211 96Q90 233 90 455Q90 684 207 815Q324 948 520 948Q635 948 719 897T856 743V915H1012ZM654 1223Q654 1266 688 1300T766 1335Q813 1335 846 1303T879 1223T846 1143T766 1110T687 1143T654 1223ZM289 1223Q289 1266 324 1300T404 1335Q451 1335 482 1303Q515
1266 514 1223Q514 1172 484 1141T404 1110Q359 1110 322 1143Q289 1174 289 1223Z" />
<glyph unicode="&#xe5;" glyph-name="aring" horiz-adv-x="1163" d="M1012 915V0H860V166Q807 68 719 15T528 -39Q331 -39 211 96Q90 233 90 455Q90 684 207 815Q324 948 520 948Q635 948 719 897T856 743V915H1012ZM860 291T860 448T776 698Q690 792 555 793Q416
793 336 707T256 463Q256 295 336 207Q416 117 561 117Q698 117 780 205Q860 291 860 448ZM430 1255Q430 1202 465 1167Q502 1130 553 1130Q606 1130 643 1167T680 1255T643 1343T553 1380Q504 1380 467 1343T430 1255ZM313 1151T313 1253T383 1423Q457 1493 553
1493T723 1423Q793 1355 793 1253T723 1083Q649 1013 553 1013T383 1083Q313 1151 313 1253Z" />
<glyph unicode="&#xe6;" glyph-name="ae" horiz-adv-x="1662" d="M213 281Q213 189 272 143Q335 96 446 96Q565 96 631 147Q701 200 700 287Q700 379 637 428T457 477T277 426T213 281ZM766 164Q721 68 627 14Q537 -37 403 -37Q243 -37 150 51Q54 141 53 289Q53
441 150 524Q248 610 416 610Q492 610 563 588Q624 568 690 520Q690 522 691 528T692 539V567Q692 688 618 754Q542 820 403 819Q342 819 274 801Q215 785 133 743V889Q225 922 291 934Q363 948 444 948Q577 948 668 895Q760 842 784 748Q831 848 919 899T1139
950Q1345 950 1464 821Q1583 694 1583 467V434H852Q854 284 942 188Q1028 92 1163 92Q1257 92 1333 143Q1405 190 1458 291L1577 211Q1511 90 1401 25Q1295 -38 1153 -39Q1018 -39 922 12T766 164ZM852 561H1411Q1401 686 1331 748Q1255 814 1133 813Q1022 813
940 741Q862 672 852 561Z" />
<glyph unicode="&#xe7;" glyph-name="ccedilla" horiz-adv-x="919" d="M862 217V35Q801 -2 723 -20Q647 -38 555 -39Q342 -39 213 96T84 449Q84 674 217 809Q352 948 561 948Q631 948 709 932Q777 918 846 885V717Q789 754 723 776Q662 796 592 797Q436 797 344
700Q252 606 252 444Q252 307 346 209Q438 113 580 113Q652 113 719 137Q790 164 862 217ZM276 -426V-326Q368 -349 419 -354Q491 -364 522 -365Q583 -365 612 -344Q643 -322 643 -283Q643 -238 610 -218T509 -197H479Q475 -197 468 -198T456 -199V0H532V-102H561Q670
-102 727 -147T784 -283T720 -422Q654 -471 534 -471Q483 -471 419 -459Q337 -442 276 -426Z" />
<glyph unicode="&#xe8;" glyph-name="egrave" horiz-adv-x="1052" d="M809 561Q799 686 729 748Q653 814 530 813Q416 813 340 745Q264 679 252 561H809ZM977 434H252V420Q252 273 336 183T555 92Q647 92 721 141T852 291L971 211Q905 90 795 25Q689 -38 547 -39Q338
-39 209 98Q80 236 80 461Q80 676 209 813T537 950Q738 950 858 819Q977 692 977 465V434ZM669 1059H549L264 1407H465L669 1059Z" />
<glyph unicode="&#xe9;" glyph-name="eacute" horiz-adv-x="1052" d="M809 561Q799 686 729 748Q653 814 530 813Q416 813 340 745Q264 679 252 561H809ZM977 434H252V420Q252 273 336 183T555 92Q647 92 721 141T852 291L971 211Q905 90 795 25Q689 -38 547 -39Q338
-39 209 98Q80 236 80 461Q80 676 209 813T537 950Q738 950 858 819Q977 692 977 465V434ZM383 1059L587 1407H788L503 1059H383Z" />
<glyph unicode="&#xea;" glyph-name="ecircumflex" horiz-adv-x="1052" d="M809 561Q799 686 729 748Q653 814 530 813Q416 813 340 745Q264 679 252 561H809ZM977 434H252V420Q252 273 336 183T555 92Q647 92 721 141T852 291L971 211Q905 90 795 25Q689 -38
547 -39Q338 -39 209 98Q80 236 80 461Q80 676 209 813T537 950Q738 950 858 819Q977 692 977 465V434ZM231 1059L428 1407H624L821 1059H698L526 1288L352 1059H231Z" />
<glyph unicode="&#xeb;" glyph-name="edieresis" horiz-adv-x="1052" d="M809 561Q799 686 729 748Q653 814 530 813Q416 813 340 745Q264 679 252 561H809ZM977 434H252V420Q252 273 336 183T555 92Q647 92 721 141T852 291L971 211Q905 90 795 25Q689 -38 547
-39Q338 -39 209 98Q80 236 80 461Q80 676 209 813T537 950Q738 950 858 819Q977 692 977 465V434ZM596 1223Q596 1266 630 1300T708 1335Q755 1335 788 1303T821 1223T788 1143T708 1110T629 1143T596 1223ZM231 1223Q231 1266 266 1300T346 1335Q393 1335 424
1303Q457 1266 456 1223Q456 1172 426 1141T346 1110Q301 1110 264 1143Q231 1174 231 1223Z" />
<glyph unicode="&#xec;" glyph-name="igrave" horiz-adv-x="495" d="M168 0V915H326V0H168ZM391 1059H271L-14 1407H187L391 1059Z" />
<glyph unicode="&#xed;" glyph-name="iacute" horiz-adv-x="495" d="M168 0V915H326V0H168ZM105 1059L309 1407H510L225 1059H105Z" />
<glyph unicode="&#xee;" glyph-name="icircumflex" horiz-adv-x="495" d="M168 0V915H326V0H168ZM-47 1059L150 1407H346L543 1059H420L248 1288L74 1059H-47Z" />
<glyph unicode="&#xef;" glyph-name="idieresis" horiz-adv-x="495" d="M168 0V915H326V0H168ZM318 1223Q318 1266 352 1300T430 1335Q477 1335 510 1303T543 1223T510 1143T430 1110T351 1143T318 1223ZM-47 1223Q-47 1266 -12 1300T68 1335Q115 1335 146 1303Q179
1266 178 1223Q178 1172 148 1141T68 1110Q23 1110 -14 1143Q-47 1174 -47 1223Z" />
<glyph unicode="&#xf0;" glyph-name="eth" horiz-adv-x="1163" d="M252 426Q252 295 348 203Q442 111 584 111Q722 111 817 203Q913 295 913 426Q913 559 817 651Q722 743 584 743Q443 743 348 651Q252 559 252 426ZM909 737Q876 852 797 971Q715 1092 604 1194L276
1044L219 1149L498 1278Q435 1329 379 1366Q332 1399 260 1438L338 1548Q440 1487 496 1450Q588 1387 641 1341L985 1501L1044 1397L739 1253Q913 1079 997 895T1081 514Q1081 256 946 109T584 -39Q480 -39 394 -4T229 98Q157 166 123 248Q86 334 86 424Q86 516
123 600T229 750Q299 813 389 852Q471 887 565 887Q665 887 752 850Q841 811 909 737Z" />
<glyph unicode="&#xf1;" glyph-name="ntilde" horiz-adv-x="1140" d="M160 0V915H313V774Q370 862 455 905Q537 948 647 948Q807 948 899 862T991 623V0H831V539Q831 676 772 745Q713 813 592 813Q524 813 465 788Q410 763 369 715Q340 676 328 633Q316 587 315
473V0H160ZM871 1337Q848 1233 801 1182Q752 1129 674 1128Q656 1128 644 1130Q624 1134 609 1139L512 1165Q508 1167 499 1169T486 1171Q478 1173 463 1174Q428 1174 410 1157Q387 1139 373 1106H285Q303 1206 353 1257Q402 1310 478 1311Q501 1311 511 1309T537
1303L635 1274L668 1266Q676 1264 689 1264Q722 1264 746 1282Q766 1296 783 1337H871Z" />
<glyph unicode="&#xf2;" glyph-name="ograve" horiz-adv-x="1163" d="M252 455Q252 308 348 209Q446 109 584 109Q723 109 817 209Q913 311 913 454T817 700Q723 800 584 801Q443 801 348 700Q252 598 252 455ZM86 455Q86 556 123 645Q160 733 231 805Q301 875
391 911Q479 948 584 948Q685 948 774 911Q860 876 936 803Q1008 735 1044 645Q1081 556 1081 455Q1081 357 1045 267T936 109Q860 37 772 0Q678 -39 584 -39Q483 -39 393 -2T232 106T123 266Q86 357 86 455ZM727 1059H607L322 1407H523L727 1059Z" />
<glyph unicode="&#xf3;" glyph-name="oacute" horiz-adv-x="1163" d="M252 455Q252 308 348 209Q446 109 584 109Q723 109 817 209Q913 311 913 454T817 700Q723 800 584 801Q443 801 348 700Q252 598 252 455ZM86 455Q86 556 123 645Q160 733 231 805Q301 875
391 911Q479 948 584 948Q685 948 774 911Q860 876 936 803Q1008 735 1044 645Q1081 556 1081 455Q1081 357 1045 267T936 109Q860 37 772 0Q678 -39 584 -39Q483 -39 393 -2T232 106T123 266Q86 357 86 455ZM441 1059L645 1407H846L561 1059H441Z" />
<glyph unicode="&#xf4;" glyph-name="ocircumflex" horiz-adv-x="1163" d="M252 455Q252 308 348 209Q446 109 584 109Q723 109 817 209Q913 311 913 454T817 700Q723 800 584 801Q443 801 348 700Q252 598 252 455ZM86 455Q86 556 123 645Q160 733 231 805Q301
875 391 911Q479 948 584 948Q685 948 774 911Q860 876 936 803Q1008 735 1044 645Q1081 556 1081 455Q1081 357 1045 267T936 109Q860 37 772 0Q678 -39 584 -39Q483 -39 393 -2T232 106T123 266Q86 357 86 455ZM289 1059L486 1407H682L879 1059H756L584 1288L410
1059H289Z" />
<glyph unicode="&#xf5;" glyph-name="otilde" horiz-adv-x="1163" d="M252 455Q252 308 348 209Q446 109 584 109Q723 109 817 209Q913 311 913 454T817 700Q723 800 584 801Q443 801 348 700Q252 598 252 455ZM86 455Q86 556 123 645Q160 733 231 805Q301 875
391 911Q479 948 584 948Q685 948 774 911Q860 876 936 803Q1008 735 1044 645Q1081 556 1081 455Q1081 357 1045 267T936 109Q860 37 772 0Q678 -39 584 -39Q483 -39 393 -2T232 106T123 266Q86 357 86 455ZM877 1337Q854 1233 807 1182Q758 1129 680 1128Q662
1128 650 1130Q630 1134 615 1139L518 1165Q514 1167 505 1169T492 1171Q484 1173 469 1174Q434 1174 416 1157Q393 1139 379 1106H291Q309 1206 359 1257Q408 1310 484 1311Q507 1311 517 1309T543 1303L641 1274L674 1266Q682 1264 695 1264Q728 1264 752 1282Q772
1296 789 1337H877Z" />
<glyph unicode="&#xf6;" glyph-name="odieresis" horiz-adv-x="1163" d="M252 455Q252 308 348 209Q446 109 584 109Q723 109 817 209Q913 311 913 454T817 700Q723 800 584 801Q443 801 348 700Q252 598 252 455ZM86 455Q86 556 123 645Q160 733 231 805Q301
875 391 911Q479 948 584 948Q685 948 774 911Q860 876 936 803Q1008 735 1044 645Q1081 556 1081 455Q1081 357 1045 267T936 109Q860 37 772 0Q678 -39 584 -39Q483 -39 393 -2T232 106T123 266Q86 357 86 455ZM654 1223Q654 1266 688 1300T766 1335Q813 1335
846 1303T879 1223T846 1143T766 1110T687 1143T654 1223ZM289 1223Q289 1266 324 1300T404 1335Q451 1335 482 1303Q515 1266 514 1223Q514 1172 484 1141T404 1110Q359 1110 322 1143Q289 1174 289 1223Z" />
<glyph unicode="&#xf7;" glyph-name="divide" horiz-adv-x="1705" d="M854 365Q903 365 936 332T969 250Q969 203 936 170Q901 135 854 135Q805 135 772 168T739 250T772 332T854 365ZM1452 670V553H254V670H1452ZM807 1085T854 1085T936 1051Q969 1018 969 971Q969
922 936 889T854 856T772 889T739 971Q739 1018 772 1051Q807 1085 854 1085Z" />
<glyph unicode="&#xf8;" glyph-name="oslash" horiz-adv-x="1163" d="M76 33L193 147Q142 208 113 283Q86 355 86 440Q86 661 227 803Q370 946 584 946Q664 946 748 920Q822 895 889 842L1008 958L1081 885L965 768Q1026 707 1053 633Q1082 553 1081 463Q1081
252 936 107T580 -39Q488 -39 406 -10Q328 17 264 74L143 -47L76 33ZM852 657L377 184Q408 149 465 127Q514 107 582 106Q725 106 821 208T918 463Q918 512 901 565Q886 614 852 657ZM307 262L780 731Q747 764 694 782Q643 800 582 801Q441 801 347 701T252 449Q252
394 266 350Q284 295 307 262Z" />
<glyph unicode="&#xf9;" glyph-name="ugrave" horiz-adv-x="1118" d="M307 915V465Q307 268 365 190Q422 110 563 111Q700 111 760 188Q817 264 817 465V915H977V381Q977 174 871 68T559 -39Q356 -39 250 67T143 381V915H307ZM704 1059H584L299 1407H500L704 1059Z" />
<glyph unicode="&#xfa;" glyph-name="uacute" horiz-adv-x="1118" d="M307 915V465Q307 268 365 190Q422 110 563 111Q700 111 760 188Q817 264 817 465V915H977V381Q977 174 871 68T559 -39Q356 -39 250 67T143 381V915H307ZM418 1059L622 1407H823L538 1059H418Z" />
<glyph unicode="&#xfb;" glyph-name="ucircumflex" horiz-adv-x="1118" d="M307 915V465Q307 268 365 190Q422 110 563 111Q700 111 760 188Q817 264 817 465V915H977V381Q977 174 871 68T559 -39Q356 -39 250 67T143 381V915H307ZM266 1059L463 1407H659L856
1059H733L561 1288L387 1059H266Z" />
<glyph unicode="&#xfc;" glyph-name="udieresis" horiz-adv-x="1118" d="M307 915V465Q307 268 365 190Q422 110 563 111Q700 111 760 188Q817 264 817 465V915H977V381Q977 174 871 68T559 -39Q356 -39 250 67T143 381V915H307ZM631 1223Q631 1266 665 1300T743
1335Q790 1335 823 1303T856 1223T823 1143T743 1110T664 1143T631 1223ZM266 1223Q266 1266 301 1300T381 1335Q428 1335 459 1303Q492 1266 491 1223Q491 1172 461 1141T381 1110Q336 1110 299 1143Q266 1174 266 1223Z" />
<glyph unicode="&#xfd;" glyph-name="yacute" horiz-adv-x="899" d="M123 -446L371 90L12 915H193L459 258L741 915H913L299 -446H123ZM564 1059L768 1407H969L684 1059H564Z" />
<glyph unicode="&#xfe;" glyph-name="thorn" horiz-adv-x="1175" d="M311 467Q311 307 395 211T621 115Q756 115 835 201T915 436Q915 605 836 700Q756 796 618 797Q479 797 395 707T311 467ZM315 166V-446H160V1550H315V743Q354 839 440 895Q522 948 643 948Q840
948 961 813Q1082 676 1081 455Q1081 230 963 94Q846 -39 649 -39Q534 -39 453 12Q366 66 315 166Z" />
<glyph unicode="&#xff;" glyph-name="ydieresis" horiz-adv-x="899" d="M123 -446L371 90L12 915H193L459 258L741 915H913L299 -446H123ZM777 1223Q777 1266 811 1300T889 1335Q936 1335 969 1303T1002 1223T969 1143T889 1110T810 1143T777 1223ZM412 1223Q412
1266 447 1300T527 1335Q574 1335 605 1303Q638 1266 637 1223Q637 1172 607 1141T527 1110Q482 1110 445 1143Q412 1174 412 1223Z" />
<glyph unicode="&#x106;" glyph-name="Cacute" horiz-adv-x="1484" d="M1364 1114Q1260 1227 1141 1282Q1021 1337 877 1337Q764 1337 651 1290Q540 1243 459 1159Q379 1075 334 965Q291 856 291 727Q291 625 315 539Q340 457 391 381Q479 256 608 189T885 121Q1028
121 1145 178Q1264 235 1364 352V121Q1260 43 1131 2T870 -39Q757 -39 643 -4Q541 27 438 96Q278 207 193 369Q109 529 109 725Q109 889 166 1032Q221 1170 338 1284Q451 1395 586 1446Q723 1499 883 1499Q1012 1499 1128 1460Q1249 1419 1364 1341V1114ZM729 1610L933
1958H1134L849 1610H729Z" />
<glyph unicode="&#x107;" glyph-name="cacute" horiz-adv-x="919" d="M862 217V35Q801 -2 723 -20Q647 -38 555 -39Q342 -39 213 96T84 449Q84 674 217 809Q352 948 561 948Q631 948 709 932Q777 918 846 885V717Q789 754 723 776Q662 796 592 797Q436 797 344
700Q252 606 252 444Q252 307 346 209Q438 113 580 113Q652 113 719 137Q790 164 862 217ZM410 1059L614 1407H815L530 1059H410Z" />
<glyph unicode="&#x10c;" glyph-name="Ccaron" horiz-adv-x="1484" d="M1364 1114Q1260 1227 1141 1282Q1021 1337 877 1337Q764 1337 651 1290Q540 1243 459 1159Q379 1075 334 965Q291 856 291 727Q291 625 315 539Q340 457 391 381Q479 256 608 189T885 121Q1028
121 1145 178Q1264 235 1364 352V121Q1260 43 1131 2T870 -39Q757 -39 643 -4Q541 27 438 96Q278 207 193 369Q109 529 109 725Q109 889 166 1032Q221 1170 338 1284Q451 1395 586 1446Q723 1499 883 1499Q1012 1499 1128 1460Q1249 1419 1364 1341V1114ZM577 1958H698L872
1731L1044 1958H1167L970 1610H774L577 1958Z" />
<glyph unicode="&#x10d;" glyph-name="ccaron" horiz-adv-x="919" d="M862 217V35Q801 -2 723 -20Q647 -38 555 -39Q342 -39 213 96T84 449Q84 674 217 809Q352 948 561 948Q631 948 709 932Q777 918 846 885V717Q789 754 723 776Q662 796 592 797Q436 797 344
700Q252 606 252 444Q252 307 346 209Q438 113 580 113Q652 113 719 137Q790 164 862 217ZM258 1407H379L553 1180L725 1407H848L651 1059H455L258 1407Z" />
<glyph unicode="&#x111;" glyph-name="" horiz-adv-x="1185" d="M860 453Q860 609 774 701T551 793Q412 793 334 709T256 473Q256 304 336 209Q416 113 553 113Q694 113 778 203Q860 291 860 453ZM1012 1550V1294H1186V1165H1012V0H860V166Q803 64 721 14Q633
-39 528 -39Q331 -39 211 96Q90 233 90 454T209 813Q326 948 522 948Q639 948 721 897Q804 845 856 743V1165H496V1294H856V1550H1012Z" />
<glyph unicode="&#x11e;" glyph-name="Gbreve" horiz-adv-x="1665" d="M981 756H1585V707Q1585 361 1389 162Q1192 -39 854 -39Q754 -39 658 -17T485 47Q305 145 207 319Q109 495 109 717Q109 897 168 1046T344 1307Q440 1401 573 1450Q700 1497 864 1497Q1079
1497 1231 1421Q1385 1343 1487 1190L1341 1073Q1261 1204 1145 1271T870 1339Q616 1339 457 1167T297 717Q297 455 459 287T870 119Q1087 119 1237 252Q1382 383 1399 600H981V756ZM543 1874H652Q660 1811 705 1780Q746 1751 834 1751T963 1780Q1008 1811 1016
1874H1125Q1109 1739 1041 1679Q969 1618 834 1618T627 1679Q559 1739 543 1874Z" />
<glyph unicode="&#x11f;" glyph-name="gbreve" horiz-adv-x="1167" d="M860 455Q860 607 776 702Q694 796 555 796T336 711T256 467Q256 299 336 211Q416 121 561 121Q700 121 780 209Q860 298 860 455ZM1012 915V16Q1012 -136 991 -197Q968 -263 926 -309Q858
-379 770 -412Q676 -447 557 -446Q352 -446 233 -350Q116 -254 111 -82H287V-94Q287 -198 358 -253T559 -309Q651 -309 719 -279Q789 -246 821 -188Q843 -154 852 -109Q860 -68 860 20V92V174Q807 76 721 23Q637 -28 528 -29Q329 -29 211 104Q90 241 90 461Q90
685 207 817Q324 948 520 948Q637 948 721 897Q809 844 856 745V915H1012ZM295 1323H404Q412 1260 457 1229Q498 1200 586 1200T715 1229Q760 1260 768 1323H877Q861 1188 793 1128Q721 1067 586 1067T379 1128Q311 1188 295 1323Z" />
<glyph unicode="&#x130;" glyph-name="Idot" horiz-adv-x="528" d="M178 0V1464H352V0H178ZM149 1774Q149 1823 184 1857T266 1892T350 1856Q385 1821 385 1774Q385 1723 352 1690Q317 1655 266 1655Q217 1655 182 1690Q149 1723 149 1774Z" />
<glyph unicode="&#x131;" glyph-name="dotlessi" horiz-adv-x="495" d="M168 0V915H326V0H168Z" />
<glyph unicode="&#x141;" glyph-name="Lslash" horiz-adv-x="942" d="M184 0V612L14 494L-74 614L184 795V1464H360V895L610 1071L698 948L360 711V166H913V0H184Z" />
<glyph unicode="&#x142;" glyph-name="lslash" horiz-adv-x="522" d="M182 0V594L47 498L-25 602L182 750V1550H342V852L477 948L549 844L342 696V0H182Z" />
<glyph unicode="&#x152;" glyph-name="OE" horiz-adv-x="2359" d="M293 733Q293 608 338 504Q385 393 471 307Q559 219 662 178Q771 135 891 135Q1018 135 1122 180Q1228 225 1315 309Q1401 395 1444 504Q1489 617 1489 733Q1489 856 1444 961Q1397 1072 1313
1155T1118 1286Q1014 1331 891 1331Q774 1331 662 1286Q551 1241 469 1157Q381 1069 338 963Q293 850 293 733ZM2253 1464V1305H1655V885H2253V723H1655V162H2253V0H1489V258Q1375 111 1231 37Q1090 -35 907 -35Q788 -35 688 -8Q579 21 500 68Q313 176 211 350Q109
526 109 733Q109 885 168 1026Q227 1165 340 1276Q454 1384 598 1442Q739 1499 909 1499Q1087 1499 1231 1427Q1370 1357 1489 1208V1464H2253Z" />
<glyph unicode="&#x153;" glyph-name="oe" horiz-adv-x="1875" d="M1632 561Q1626 684 1552 748Q1476 814 1354 813Q1241 813 1165 745Q1089 679 1077 561H1632ZM985 164Q932 72 823 16Q712 -39 584 -39Q512 -39 455 -23Q392 -5 334 29Q215 99 150 211Q87 320
86 455Q86 668 231 807Q378 948 596 948Q711 948 813 897Q909 850 985 748Q1038 844 1137 897Q1233 950 1358 950Q1561 950 1681 819Q1800 692 1800 465V434H1077V420Q1077 268 1161 182Q1247 92 1380 92Q1470 92 1544 141T1675 291L1796 211Q1730 90 1620 25Q1514
-38 1372 -39Q1243 -39 1141 14Q1040 66 985 164ZM252 455Q252 308 348 209Q446 109 584 109Q723 109 817 209Q913 311 913 454T817 700Q723 800 584 801Q443 801 348 700Q252 598 252 455Z" />
<glyph unicode="&#x15e;" glyph-name="Scedilla" horiz-adv-x="1052" d="M709 813Q850 754 924 651Q998 550 997 412Q997 209 868 86T528 -37Q352 -37 238 51Q119 141 80 303L238 381Q269 250 344 181T528 111Q661 111 739 186Q821 264 821 383Q821 477 764 553Q709
627 594 676L416 752Q271 811 199 909Q127 1005 127 1139Q127 1296 244 1397Q363 1499 539 1499Q672 1499 768 1444Q860 1391 918 1278L774 1186Q727 1268 664 1313Q605 1354 526 1354Q424 1354 365 1294Q304 1233 303 1141Q303 1061 350 1006Q399 949 500 905L709
813ZM270 -426V-326Q362 -349 413 -354Q485 -364 516 -365Q577 -365 606 -344Q637 -322 637 -283Q637 -238 604 -218T503 -197H473Q469 -197 462 -198T450 -199V0H526V-102H555Q664 -102 721 -147T778 -283T714 -422Q648 -471 528 -471Q477 -471 413 -459Q331 -442
270 -426Z" />
<glyph unicode="&#x15f;" glyph-name="scedilla" horiz-adv-x="833" d="M63 154L197 244Q232 174 293 135Q352 98 430 98T555 135T602 236Q602 285 569 315Q532 350 459 375L432 385Q98 498 98 672Q98 793 188 870T422 948Q539 948 627 901Q709 858 748 766L621
688Q594 751 539 784Q482 819 412 819Q340 819 299 780Q256 741 256 682Q256 600 438 541L492 524Q643 475 700 414Q757 355 758 252Q758 121 666 41T424 -39Q293 -39 207 8Q116 58 63 154ZM418 -426V-326Q510 -349 561 -354Q633 -364 664 -365Q725 -365 754 -344Q785
-322 785 -283Q785 -238 752 -218T651 -197H621Q617 -197 610 -198T598 -199V0H674V-102H703Q812 -102 869 -147T926 -283T862 -422Q796 -471 676 -471Q625 -471 561 -459Q479 -442 418 -426Z" />
<glyph unicode="&#x160;" glyph-name="Scaron" horiz-adv-x="1052" d="M709 813Q850 754 924 651Q998 550 997 412Q997 209 868 86T528 -37Q352 -37 238 51Q119 141 80 303L238 381Q269 250 344 181T528 111Q661 111 739 186Q821 264 821 383Q821 477 764 553Q709
627 594 676L416 752Q271 811 199 909Q127 1005 127 1139Q127 1296 244 1397Q363 1499 539 1499Q672 1499 768 1444Q860 1391 918 1278L774 1186Q727 1268 664 1313Q605 1354 526 1354Q424 1354 365 1294Q304 1233 303 1141Q303 1061 350 1006Q399 949 500 905L709
813ZM231 1958H352L526 1731L698 1958H821L624 1610H428L231 1958Z" />
<glyph unicode="&#x161;" glyph-name="scaron" horiz-adv-x="833" d="M63 154L197 244Q232 174 293 135Q352 98 430 98T555 135T602 236Q602 285 569 315Q532 350 459 375L432 385Q98 498 98 672Q98 793 188 870T422 948Q539 948 627 901Q709 858 748 766L621
688Q594 751 539 784Q482 819 412 819Q340 819 299 780Q256 741 256 682Q256 600 438 541L492 524Q643 475 700 414Q757 355 758 252Q758 121 666 41T424 -39Q293 -39 207 8Q116 58 63 154ZM379 1407H500L674 1180L846 1407H969L772 1059H576L379 1407Z" />
<glyph unicode="&#x178;" glyph-name="Ydieresis" horiz-adv-x="1169" d="M498 0V670L2 1464H203L586 829L967 1464H1167L672 670V0H498ZM656 1774Q656 1817 690 1851T768 1886Q815 1886 848 1854T881 1774T848 1694T768 1661T689 1694T656 1774ZM291 1774Q291
1817 326 1851T406 1886Q453 1886 484 1854Q517 1817 516 1774Q516 1723 486 1692T406 1661Q361 1661 324 1694Q291 1725 291 1774Z" />
<glyph unicode="&#x17d;" glyph-name="Zcaron" horiz-adv-x="1157" d="M-10 0L813 1305H145V1464H1108L293 166H1075V0H-10ZM285 1958H406L580 1731L752 1958H875L678 1610H482L285 1958Z" />
<glyph unicode="&#x17e;" glyph-name="zcaron" horiz-adv-x="882" d="M31 0L555 778H63V915H831L307 137H827V0H31ZM403 1407H524L698 1180L870 1407H993L796 1059H600L403 1407Z" />
<glyph unicode="&#x192;" glyph-name="florin" horiz-adv-x="1206" d="M678 805L586 25Q551 -260 485 -354Q417 -450 279 -451Q263 -451 225 -446Q202 -444 168 -436L201 -299Q211 -301 238 -307Q248 -309 264 -309Q379 -309 416 12V18L506 805H344L358 938H518L539
1102Q564 1301 629 1391Q692 1479 819 1479Q862 1479 897 1470Q940 1460 975 1446L958 1305Q913 1323 893 1327Q860 1335 848 1335Q787 1335 756 1280Q723 1221 709 1081L692 938H885L870 805H678Z" />
<glyph unicode="&#x2c6;" glyph-name="circumflex" horiz-adv-x="1024" d="M217 1059L414 1407H610L807 1059H684L512 1288L338 1059H217Z" />
<glyph unicode="&#x2c7;" glyph-name="caron" horiz-adv-x="1024" d="M217 1407H338L512 1180L684 1407H807L610 1059H414L217 1407Z" />
<glyph unicode="&#x2d8;" glyph-name="breve" horiz-adv-x="1024" d="M221 1323H330Q338 1260 383 1229Q424 1200 512 1200T641 1229Q686 1260 694 1323H803Q787 1188 719 1128Q647 1067 512 1067T305 1128Q237 1188 221 1323Z" />
<glyph unicode="&#x2d9;" glyph-name="dotaccent" horiz-adv-x="1024" d="M395 1223Q395 1272 430 1306T512 1341T596 1305Q631 1270 631 1223Q631 1172 598 1139Q563 1104 512 1104Q463 1104 428 1139Q395 1172 395 1223Z" />
<glyph unicode="&#x2da;" glyph-name="ring" horiz-adv-x="1024" d="M377 1292Q377 1235 416 1196T512 1157T608 1196T647 1292Q647 1345 606 1386T512 1427Q455 1427 416 1388T377 1292ZM260 1186T260 1292T334 1472T512 1546Q618 1546 692 1473T766 1292Q766
1188 692 1114T512 1040T334 1112Q260 1186 260 1292Z" />
<glyph unicode="&#x2db;" glyph-name="ogonek" horiz-adv-x="1024" d="M590 0Q519 -65 485 -117Q452 -168 453 -221Q453 -262 473 -281Q496 -299 549 -299H633V-442H547Q434 -442 379 -399Q322 -354 322 -274Q322 -208 365 -143Q404 -84 508 0H590Z" />
<glyph unicode="&#x2dc;" glyph-name="tilde" horiz-adv-x="1024" d="M805 1337Q782 1233 735 1182Q686 1129 608 1128Q590 1128 578 1130Q558 1134 543 1139L446 1165Q442 1167 433 1169T420 1171Q412 1173 397 1174Q362 1174 344 1157Q321 1139 307 1106H219Q237
1206 287 1257Q336 1310 412 1311Q435 1311 445 1309T471 1303L569 1274L602 1266Q610 1264 623 1264Q656 1264 680 1282Q700 1296 717 1337H805Z" />
<glyph unicode="&#x2dd;" glyph-name="hungarumlaut" horiz-adv-x="1024" d="M569 1059L735 1407H911L666 1059H569ZM311 1059L449 1407H627L408 1059H311Z" />
<glyph unicode="&#x3a9;" glyph-name="Omega" horiz-adv-x="1572" d="M1473 156V0H883V150Q1076 261 1180 428Q1282 594 1282 803Q1282 1057 1145 1208Q1008 1362 787 1362T426 1206Q289 1054 289 803Q289 596 391 430Q495 260 690 150V0H100V156H432Q272 285
190 440Q110 590 111 776Q111 1104 299 1308T786 1513T1274 1311Q1462 1106 1462 780Q1462 592 1384 442Q1304 288 1141 156H1473Z" />
<glyph unicode="&#x3c0;" glyph-name="pi" horiz-adv-x="1185" d="M1139 930H954L844 414Q832 359 823 299Q815 233 815 225Q815 168 839 144T920 119Q951 119 967 121Q1000 125 1018 129L989 0H983Q913 -16 885 -16Q774 -16 717 35T659 186Q659 245 670 307Q684
397 715 537L799 930H451L254 0H96L293 930H254Q201 930 170 899Q141 870 129 799H-16Q9 949 78 1010Q148 1069 301 1069H1167L1139 930Z" />
<glyph unicode="&#x2013;" glyph-name="endash" horiz-adv-x="1024" d="M0 514H1024V397H0V514Z" />
<glyph unicode="&#x2014;" glyph-name="emdash" horiz-adv-x="2048" d="M0 397V514H2048V397H0Z" />
<glyph unicode="&#x2018;" glyph-name="quoteleft" horiz-adv-x="602" d="M481 1452L293 907L121 969L369 1497L481 1452Z" />
<glyph unicode="&#x2019;" glyph-name="quoteright" horiz-adv-x="602" d="M121 954L311 1497L481 1438L236 907L121 954Z" />
<glyph unicode="&#x201a;" glyph-name="quotesinglbase" horiz-adv-x="602" d="M121 -291L311 254L481 195L236 -336L121 -291Z" />
<glyph unicode="&#x201c;" glyph-name="quotedblleft" horiz-adv-x="890" d="M807 1452L616 907L446 969L692 1497L807 1452ZM444 1452L254 907L84 969L332 1497L444 1452Z" />
<glyph unicode="&#x201d;" glyph-name="quotedblright" horiz-adv-x="890" d="M444 954L633 1497L805 1438L557 907L444 954ZM86 954L276 1497L446 1438L201 907L86 954Z" />
<glyph unicode="&#x201e;" glyph-name="quotedblbase" horiz-adv-x="890" d="M444 -291L633 254L805 195L557 -336L444 -291ZM86 -291L276 254L446 195L201 -336L86 -291Z" />
<glyph unicode="&#x2020;" glyph-name="dagger" horiz-adv-x="1073" d="M455 -446V760H90V903H455V1464H621V903H985V760H621V-446H455Z" />
<glyph unicode="&#x2021;" glyph-name="daggerdbl" horiz-adv-x="1073" d="M453 -446V57H90V207H453V891H90V1040H453V1464H623V1040H985V891H623V207H985V57H623V-446H453Z" />
<glyph unicode="&#x2022;" glyph-name="bullet" horiz-adv-x="1206" d="M307 762Q307 885 393 971T604 1057Q727 1057 813 971T899 762Q899 641 811 553T602 465T393 553Q307 639 307 762Z" />
<glyph unicode="&#x2026;" glyph-name="ellipsis" horiz-adv-x="2048" d="M221 98Q221 147 256 182T340 217Q387 217 426 182Q461 149 461 98Q461 51 426 17T340 -18Q291 -18 256 16T221 98ZM903 98Q903 147 938 182T1022 217Q1069 217 1108 182Q1143 149 1143
98Q1143 51 1108 17T1022 -18Q973 -18 938 16T903 98ZM1587 98Q1587 147 1622 182T1706 217Q1753 217 1792 182Q1827 149 1827 98Q1827 51 1792 17T1706 -18Q1657 -18 1622 16T1587 98Z" />
<glyph unicode="&#x2030;" glyph-name="perthousand" horiz-adv-x="2222" d="M1874 63Q1946 63 1987 135T2028 340Q2028 477 1989 546T1874 616Q1802 616 1761 545Q1722 475 1722 340T1761 135Q1802 63 1874 63ZM2175 340Q2175 164 2095 61Q2015 -39 1874 -39Q1737
-39 1655 61Q1575 159 1575 340Q1575 516 1655 618Q1735 718 1874 719Q2015 719 2095 618Q2175 516 2175 340ZM1466 340Q1466 160 1386 61Q1304 -39 1167 -39Q1026 -39 946 61Q866 163 866 339T946 618Q1026 718 1167 719Q1306 719 1386 618Q1466 516 1466 340ZM1096
63T1167 63T1280 135T1321 340Q1321 477 1282 546T1167 616Q1095 616 1055 545T1014 340T1055 135ZM287 823T358 823T471 895T512 1100Q512 1237 473 1307Q432 1379 358 1378Q286 1378 246 1305Q205 1229 205 1100Q205 967 246 895ZM659 1100Q659 920 580 822T359
723T137 821T57 1100Q57 1278 137 1378T358 1479T579 1379T659 1100ZM272 -39L1114 1479H1237L397 -39H272Z" />
<glyph unicode="&#x2039;" glyph-name="guilsinglleft" horiz-adv-x="483" d="M319 49L68 453L311 860L416 793L211 453L418 121L319 49Z" />
<glyph unicode="&#x203a;" glyph-name="guilsinglright" horiz-adv-x="483" d="M166 49L68 121L274 453L70 793L174 860L418 453L166 49Z" />
<glyph unicode="&#x20a3;" glyph-name="franc" horiz-adv-x="1755" d="M176 0V1464H948V1305H350V885H948V723H350V0H176ZM1200 0V915H1339V725Q1402 844 1472 895T1646 946Q1666 946 1700 942Q1723 940 1753 928L1700 786Q1661 798 1648 801Q1615 805 1603 805Q1478
805 1417 715Q1356 627 1355 446V0H1200Z" />
<glyph unicode="&#x20ac;" glyph-name="Euro" horiz-adv-x="1206" d="M1133 283L1126 90Q1046 29 948 -6Q858 -39 760 -39Q531 -39 371 121Q209 283 170 547H4L27 649H160V662Q156 719 156 721Q156 725 157 736T158 756Q160 770 162 805H4L27 911H174Q217 1169
381 1325Q545 1479 770 1479Q870 1479 958 1444T1126 1335V1145Q1046 1234 961 1280Q877 1325 784 1325Q622 1325 506 1214Q393 1108 358 911H977L944 805H342Q342 801 341 789T340 768Q338 743 338 721V678Q338 672 339 663T340 649H897L864 547H354Q383 352 498
233Q615 114 770 115Q866 115 954 156Q1039 195 1133 283Z" />
<glyph unicode="&#x2122;" glyph-name="trademark" horiz-adv-x="1705" d="M948 1456L1108 1051L1257 1456H1389V922H1307V1380L1135 922H1081L901 1380V922H819V1456H948ZM694 1456V1389H522V922H428V1389H254V1456H694Z" />
<glyph unicode="&#x2202;" glyph-name="partialdiff" horiz-adv-x="1042" d="M754 604Q770 708 774 766Q780 846 780 924Q780 1065 741 1141T629 1217Q576 1217 513 1154T403 1090Q374 1090 352 1112T330 1163Q330 1221 397 1268Q467 1315 561 1315Q733 1315 834
1163Q936 1007 936 750Q936 418 797 195Q660 -24 453 -25Q306 -25 212 81T117 354Q117 542 225 669T492 797Q590 797 655 750Q715 706 754 604ZM709 483Q709 600 664 663T537 727Q422 727 352 600Q280 469 281 266Q281 151 326 88Q369 27 453 27Q564 27 637 156Q709
280 709 483Z" />
<glyph unicode="&#x2206;" glyph-name="uni2206" horiz-adv-x="1355" d="M1122 158L678 1296L233 158H1122ZM780 1473L1366 0H-8L578 1473H780Z" />
<glyph unicode="&#x220f;" glyph-name="product" horiz-adv-x="1527" d="M160 1473H1368V-393H1167V1300H358V-393H160V1473Z" />
<glyph unicode="&#x2211;" glyph-name="summation" horiz-adv-x="1345" d="M51 1473H1290V1307H301L991 563L272 -229H1307V-393H18V-254L756 559L51 1317V1473Z" />
<glyph unicode="&#x2212;" glyph-name="minus" horiz-adv-x="1705" d="M1452 670V551H254V670H1452Z" />
<glyph unicode="&#x2215;" glyph-name="uni2215" horiz-adv-x="339" d="M-342 -39L557 1479H682L-217 -39H-342Z" />
<glyph unicode="&#x2219;" glyph-name="uni2219" horiz-adv-x="602" d="M182 672T182 721T217 805T301 840Q348 840 387 805Q422 772 422 721T387 637Q348 602 301 602Q252 602 217 637Z" />
<glyph unicode="&#x221a;" glyph-name="radical" horiz-adv-x="1286" d="M1288 1647V1565H1169L575 -41H522L199 852L80 809L57 877L319 969L584 240L1106 1647H1288Z" />
<glyph unicode="&#x221e;" glyph-name="infinity" horiz-adv-x="1705" d="M905 559Q958 463 1024 418Q1094 371 1180 371Q1280 371 1348 442Q1416 512 1416 622T1354 803Q1293 875 1202 874Q1116 874 1049 801Q977 721 905 559ZM803 666Q748 766 684 809Q614 856
530 856Q424 856 359 785T293 602Q293 494 354 424Q415 352 506 352Q588 352 657 422Q725 492 803 666ZM840 727Q910 870 985 932Q1067 998 1161 997Q1294 997 1386 889Q1478 783 1479 616Q1479 446 1397 340T1184 233Q1088 233 1016 293Q942 354 866 494Q796 359
719 293Q643 230 545 229Q412 229 320 337T227 610Q227 784 309 887Q393 993 524 993Q624 993 696 930Q777 860 840 727Z" />
<glyph unicode="&#x222b;" glyph-name="integral'" horiz-adv-x="1019" d="M301 -268Q405 -268 418 395Q418 432 419 509T422 612Q434 1114 524 1331T805 1548Q883 1548 928 1509T973 1405Q973 1358 942 1327Q913 1298 860 1298Q805 1298 774 1333Q743 1367 743
1425Q743 1433 737 1440Q729 1448 723 1448Q621 1448 604 813Q602 661 598 569Q589 262 567 109Q547 -36 504 -139Q455 -253 381 -311Q305 -370 213 -371Q139 -371 94 -334Q47 -297 47 -236Q47 -183 78 -152T162 -121Q207 -121 242 -150Q275 -177 274 -217Q274
-242 281 -254Q287 -268 301 -268Z" />
<glyph unicode="&#x2248;" glyph-name="approxequal" horiz-adv-x="1705" d="M1530 453Q1422 379 1327 342Q1237 307 1141 307Q1043 307 855 376T563 446Q479 446 393 410Q295 369 178 287V418Q278 488 381 526Q476 563 565 563Q669 563 866 494Q1056 426 1143
426Q1233 426 1317 461T1530 584V453ZM1530 803Q1434 735 1329 694Q1239 659 1143 659Q1045 659 854 727Q657 797 563 797Q475 797 391 762T178 639V770Q278 840 381 879Q476 916 565 915Q669 915 866 846Q1056 778 1143 778Q1227 778 1319 813Q1403 844 1530 934V803Z"
/>
<glyph unicode="&#x2260;" glyph-name="notequal" horiz-adv-x="1705" d="M1298 1110L1102 860H1452V745H1028L817 475H1452V360H743L492 41L403 111L600 360H254V475H674L885 745H254V860H958L1210 1180L1298 1110Z" />
<glyph unicode="&#x2264;" glyph-name="lessequal" horiz-adv-x="1705" d="M1444 150V33H262V150H1444ZM1444 1067L467 743L1444 420V295L262 694V795L1444 1192V1067Z" />
<glyph unicode="&#x2265;" glyph-name="greaterequal" horiz-adv-x="1705" d="M1444 150V33H262V150H1444ZM1444 795V694L262 295V420L1241 743L262 1067V1192L1444 795Z" />
<glyph unicode="&#x25ca;" glyph-name="lozenge" horiz-adv-x="1011" d="M506 1409L121 592L506 -233L891 592L506 1409ZM506 1653L1006 592L506 -477L6 592L506 1653Z" />
<glyph unicode="&#xf000;" glyph-name="uniF000" horiz-adv-x="1617" d="M836 1217Q836 1219 835 1223T834 1231V1253Q834 1376 930 1483Q1028 1589 1165 1614Q1165 1612 1166 1604T1167 1591V1552Q1167 1421 1063 1317Q961 1215 860 1214H852H844L840 1215L836
1217ZM1505 403Q1390 153 1300 61Q1208 -35 1096 -35Q1045 -35 965 -2T842 31Q795 31 711 -2T584 -35Q519 -35 455 8Q392 51 326 141Q220 288 168 436Q113 593 113 737Q113 956 237 1093T561 1231Q629 1231 717 1196Q801 1163 840 1163Q873 1163 961 1198T1114
1233Q1227 1233 1313 1194Q1395 1157 1473 1069Q1371 1003 1322 924T1272 741Q1272 624 1331 541Q1392 454 1505 403Z" />
<glyph unicode="&#xf001;" glyph-name="uniF001" horiz-adv-x="1073" d="M713 1356Q713 1401 747 1435T827 1470Q874 1470 909 1436Q942 1403 942 1354Q942 1307 910 1274T828 1241T746 1274T713 1356ZM750 0V915H905V0H750ZM201 0V786H25V915H201V1180Q201 1411
258 1489Q315 1569 465 1569Q512 1569 535 1565Q580 1557 600 1548V1386Q580 1398 539 1411Q512 1419 477 1419Q409 1419 383 1374Q356 1327 356 1159V915H600V786H360V0H201Z" />
<glyph unicode="&#xf002;" glyph-name="uniF002" horiz-adv-x="1073" d="M750 1550H907V0H750V1550ZM201 0V786H25V915H201V1180Q201 1411 258 1489Q315 1569 465 1569Q512 1569 535 1565Q580 1557 600 1548V1386Q580 1398 539 1411Q512 1419 477 1419Q409 1419
383 1374Q356 1327 356 1159V915H600V786H360V0H201Z" />
</font>
</defs>
</svg>
